#TITLE:Stereo Love;
#SUBTITLE:(DJ Sy Remix);
#ARTIST:Edward Maya feat. Vika Jigulina;
#TITLETRANSLIT:;
#SUBTITLETRANSLIT:;
#ARTISTTRANSLIT:;
#CREDIT:;
#BANNER:Stereo Love (DJ Sy Remix)-bn.png;
#BACKGROUND:Stereo Love (DJ Sy Remix)-bg.png;
#LYRICSPATH:;
#CDTITLE:cd.png;
#MUSIC:Stereo Love (DJ Sy Remix).mp3;
#OFFSET:-5.725;
#SAMPLESTART:56.970;
#SAMPLELENGTH:12.000;
#SELECTABLE:YES;
#DISPLAYBPM:169.000;
#BPMS:0.000=168.460,48.000=168.490,101.000=168.800,146.000=168.860,176.000=168.890,240.000=169.400;
#STOPS:;
#BGCHANGES:;

//---------------dance-single - ----------------
#NOTES:
     dance-single:
     :
     Hard:
     9:
     0.631,0.574,0.310,0.263,0.000:
0000
1000
0000
1000
0000
1010
0000
1010
,
0000
0001
0000
0001
0000
0101
0000
0101
,
0000
0010
0000
0010
0000
0110
0000
0110
,
0000
2000
0000
3200
0000
0302
0000
0003
,
0010
1000
0010
0000
0100
0001
0100
0000
,
0010
0100
0010
0000
0001
0010
0001
0000
,
0100
1000
0100
0000
0010
1000
0010
0000
,
1000
0010
1000
0010
0100
0010
0100
0000
,
0001
0100
0001
0000
0010
1000
0010
0000
,
0010
1000
0100
0000
0100
1000
0001
0000
,
0001
0100
0001
0000
0001
0010
1000
0000
,
0001
1000
0020
0000
0230
0000
0301
0000
,
1001
0000
0001
1000
0010
1000
0010
2000
,
0000
3001
0100
0010
0100
0001
0010
0002
,
0000
1003
0010
1000
0100
0001
0010
0002
,
0000
0203
0000
0310
0000
0110
0000
1001
,
0000
0001
1000
0001
0100
0010
1000
1001
,
0000
0001
1000
0100
0010
0100
0010
0110
,
0000
0001
1000
0100
1000
0010
0000
2000
,
0000
3010
0000
0201
0000
0302
0000
1003
,
0000
0100
1000
0100
0000
2010
0000
3100
,
0000
0001
0000
0021
0000
0001
0000
0031
,
0000
0100
1000
0010
0100
0010
0100
0001
,
0000
0001
0100
0010
1000
0000
0100
1000
,
0100
1000
0010
0100
0000
0010
0000
0010
,
0000
0110
0000
1001
0000
0011
0000
1100
,
0000
0100
1000
0010
1000
0010
0100
0001
,
0000
0001
0100
0010
0100
0001
0100
0000
,
1001
0000
0010
1000
0100
1000
0010
1000
,
0100
1000
0001
1000
0100
1000
0001
1000
,
0100
0000
0100
1000
0100
0000
0001
0100
,
0001
0000
0010
0100
0010
0000
0100
0000
,
1001
0000
0001
0100
0010
0100
0001
0100
,
0010
0100
0100
1000
0010
0100
0100
1000
,
0010
0000
0010
1000
0100
0000
1001
0000
,
0100
1000
0100
0000
0001
0100
0001
0000
,
2001
0000
3001
0010
0001
0010
0002
0000
,
0103
0000
0010
0100
0010
1000
0100
1000
,
1001
0000
0001
1000
1100
0000
0001
0100
,
0101
0000
0010
0100
0001
1000
0200
0000
,
1000
0300
0000
0000
0000
0000
0000
0000
0000
0000
0000
0000
0000
0000
0000
0000
0000
0000
0000
0000
0000
0000
0000
0000
0000
0000
0000
0000
0000
0000
0000
0000
0000
0000
0000
0000
0000
0000
0000
0000
0000
0000
0000
0000
0000
0000
0000
0000
0001
0000
0000
0000
0000
0000
0000
0000
0000
0000
0000
0000
0000
0000
0000
0000
0000
0000
0000
0000
0000
0000
0000
0000
1000
0000
0000
0000
0000
0000
0000
0000
0000
0000
0000
0000
0000
0000
0000
0000
0000
0000
0000
0000
0000
0000
0000
0000
0010
0000
0000
0000
0000
0000
0000
0000
0000
0000
0000
0000
0000
0000
0000
0000
0000
0000
0000
0000
0000
0000
0000
0000
1000
0000
0000
0000
0000
0000
0000
0000
0000
0000
0000
0000
0000
0000
0000
0000
0000
0000
0000
0000
0000
0000
0000
0000
0010
0000
0000
0000
0000
0000
0000
0000
0000
0000
0000
0000
0000
0000
0000
0000
0000
0000
0000
0000
0000
0000
0000
0000
0000
0000
0000
0000
0000
0000
0000
0000
0000
0000
0000
0000
0000
0000
0000
0000
0000
0000
0000
0000
0000
0000
0000
0000
,
1010
0000
0001
0100
0010
0100
0010
0000
,
0002
0000
0203
0000
0310
1000
0010
1000
,
0100
0000
1001
0000
0001
1000
0001
1000
,
1001
0000
0001
1000
0001
1000
0100
1000
,
0001
0100
0010
0100
0001
0100
0010
0100
,
0001
0100
0010
1000
0100
1000
0100
1000
,
0001
0100
0001
0100
0001
0100
0001
0000
,
0110
0000
1000
0001
1000
0100
1000
0010
,
1000
0100
1000
0010
0100
0010
1000
0010
,
0100
0001
0010
0001
0100
0010
1000
0100
,
0010
0001
0100
0010
1000
0100
1000
0000
,
1001
0000
1000
0001
0010
0001
1000
0001
,
0100
0001
0100
0001
0010
0001
0010
0001
,
1000
0000
1000
0010
0100
0000
0100
0010
,
0100
0000
1000
0010
0100
0010
0100
0000
,
0110
0000
0010
0001
0100
0001
0100
1000
,
0010
0100
0010
1000
0010
0100
0001
0100
,
0010
0000
1000
0100
1000
0000
0010
0100
,
0010
0000
0100
0001
0100
0000
1001
0000
,
1001
0000
1000
0010
1000
0000
1000
0001
,
1000
0000
1000
0001
0010
0000
0010
0001
,
0100
0000
0100
0001
0100
0000
0100
0001
,
0200
0320
2030
3002
,
1003
0001
1000
0000
1000
0010
1000
0000
,
1000
0100
1000
0000
1000
0010
0100
0000
,
0200
0302
2003
3020
,
2000
0000
0000
0000
,
3030
0000
0000
0000
;

//---------------dance-single - ----------------
#NOTES:
     dance-single:
     :
     Medium:
     7:
     0.508,0.478,0.328,0.150,0.000: // measure 1
0000
1000
0000
1000
0000
1000
0000
1010
,  // measure 2
0000
0001
0000
0001
0000
0001
0000
0101
,  // measure 3
0000
0001
0000
0001
0000
0001
0000
0011
,  // measure 4
0000
0100
0000
0100
0000
0010
0000
0000
,  // measure 5
0110
0000
0010
1000
0010
0000
0100
0000
,  // measure 6
1000
0000
0001
1000
0001
0000
0010
0000
,  // measure 7
0001
0000
0010
0100
0010
0000
0001
0000
,  // measure 8
0010
1000
0010
0000
0001
0100
0001
0000
,  // measure 9
1000
0000
0001
0010
0001
0000
0010
0000
,  // measure 10
0001
0000
0100
1000
0010
0000
1000
0000
,  // measure 11
0100
0000
0001
0100
0001
0000
0010
0000
,  // measure 12
0011
1010
0101
1100
,  // measure 13
1001
0000
0001
1000
0001
0000
0020
0000
,  // measure 14
0130
0000
0001
1000
0100
0000
2000
0000
,  // measure 15
3010
0000
0100
0010
0001
0000
0001
0000
,  // measure 16
0010
0001
0200
0010
,  // measure 17
0301
0000
0001
1000
0001
0000
0020
0000
,  // measure 18
0130
0000
0001
0100
0001
0000
0020
0000
,  // measure 19
0130
0000
0100
0010
0100
0000
0002
0000
,  // measure 20
0013
0100
1000
0100
,  // measure 21
0000
0010
1000
0010
0000
0010
0000
0010
,  // measure 22
0000
0200
0000
0001
0000
0010
0000
0301
,  // measure 23
0000
1000
0001
0000
0100
1000
0010
0000
,  // measure 24
0100
1000
0001
0100
0010
0100
0001
1000
,  // measure 25
0000
0001
1000
0010
0000
0010
0000
0100
,  // measure 26
0000
0002
0000
0010
0000
0100
0000
0103
,  // measure 27
0000
0100
1000
0000
0001
1000
0001
0000
,  // measure 28
0001
0010
0002
0000
0203
0000
0310
0000
,  // measure 29
1001
0000
0100
0000
0100
1000
0010
1000
,  // measure 30
0010
1000
0100
1000
,  // measure 31
0001
0000
0010
0100
0010
0000
0001
1000
,  // measure 32
0001
0000
0001
0010
0001
0000
0010
0000
,  // measure 33
0100
0000
1000
0000
0010
0100
0010
0100
,  // measure 34
0001
0100
0010
1000
,  // measure 35
0001
0011
0001
1100
,  // measure 36
0010
0100
0010
0000
0100
0001
0100
0000
,  // measure 37
1010
0000
0100
1000
0100
1000
0020
0000
,  // measure 38
1030
0000
0001
0100
0001
0000
0001
0000
,  // measure 39
0110
0000
0001
0010
0001
0010
0001
0000
,  // measure 40
0001
0000
0100
1000
0010
0100
0010
0000
,  // measure 41
0110
0000
0100
0010
1000
0010
0100
0000
,  // measure 42
0001
0000
0100
0010
1000
0000
0100
1000
,  // measure 43
0001
0100
0001
0100
0010
0000
0100
1000
,  // measure 44
0001
0010
0001
0001
,  // measure 45
1002
0000
0103
0000
0001
0100
0001
0000
,  // measure 46
0100
0010
0100
0010
,  // measure 47
0110
0001
0110
0001
,  // measure 48
0110
1000
0110
1000
,  // measure 49
0120
0000
0130
0000
1000
0010
1000
0100
,  // measure 50
1000
0010
0100
0001
,  // measure 51
0011
0100
0011
0100
,  // measure 52
0001
1100
0001
2100
,  // measure 53
3001
0000
0010
0001
0100
0010
0100
0001
,  // measure 54
0010
0001
0010
0100
,  // measure 55
1100
0010
1100
0010
,  // measure 56
1100
0100
0010
0101
,  // measure 57
0020
0000
0130
0000
1000
0010
1000
0100
,  // measure 58
1000
0010
0100
0001
,  // measure 59
0010
0110
0001
0110
,  // measure 60
0001
1001
0001
1001
,  // measure 61
0001
0000
0001
0000
1000
0000
0010
1000
,  // measure 62
0010
0000
0001
0000
0100
0000
0001
0010
,  // measure 63
0100
0000
0100
0000
1000
0000
0010
0100
,  // measure 64
0010
0000
0010
0000
0010
0000
0100
0001
,  // measure 65
0100
0000
0010
0000
1001
0000
0100
0010
,  // measure 66
0100
0000
0100
0000
1100
0000
0001
0010
,  // measure 67
0100
0100
0100
0010
,  // measure 68
2000
0000
0000
0000
,  // measure 69
3000
0000
0000
0000
;

//---------------dance-single - ----------------
#NOTES:
     dance-single:
     :
     Easy:
     4:
     0.401,0.447,0.235,0.328,0.000: // measure 1
0000
1010
0000
0010
,  // measure 2
0000
0100
0000
0010
,  // measure 3
0000
0100
0000
1001
,  // measure 4
0000
0010
0010
0010
,  // measure 5
0001
0001
1000
1001
,  // measure 6
0100
0100
1000
1100
,  // measure 7
0010
0010
0100
0110
,  // measure 8
0001
1000
0001
1100
,  // measure 9
0001
0010
0001
0011
,  // measure 10
0100
1000
0010
0110
,  // measure 11
0001
0010
0100
0110
,  // measure 12
2002
0000
0000
3003
,  // measure 13
1001
0100
1000
0001
,  // measure 14
1000
0001
0010
0001
,  // measure 15
0100
0010
1000
0001
,  // measure 16
2000
0000
0002
3000
,  // measure 17
0103
0010
0010
0100
,  // measure 18
0001
0010
0100
1000
,  // measure 19
0001
0010
0100
1000
,  // measure 20
0002
0000
0200
0000
,  // measure 21
0303
0010
0000
0010
0000
0010
0000
1000
,  // measure 22
0000
0001
0000
1000
0000
0001
0000
1000
,  // measure 23
0000
0001
0010
0000
1000
0000
0001
0000
,  // measure 24
0010
0100
1000
0001
,  // measure 25
0000
1000
0000
0010
0000
0100
0000
0100
,  // measure 26
0000
0100
0000
0001
0000
1000
0000
0001
,  // measure 27
0010
1000
0100
0010
,  // measure 28
0000
0100
0100
0010
,  // measure 29
2002
0003
0001
0001
,  // measure 30
3100
1000
0010
1000
,  // measure 31
0020
0100
1000
0130
,  // measure 32
0200
0001
0010
0301
,  // measure 33
0110
0001
0100
1000
,  // measure 34
2000
0010
0100
0001
,  // measure 35
3002
0010
0100
1003
,  // measure 36
0100
0010
0001
0010
,  // measure 37
1001
0010
0200
2300
,  // measure 38
3010
0010
1000
0001
,  // measure 39
1001
0010
1001
0001
,  // measure 40
1001
0000
0100
0010
,  // measure 41
0110
0000
0010
0001
,  // measure 42
0011
0000
0100
1000
,  // measure 43
1010
1010
0101
0101
,  // measure 44
0200
1300
0010
0010
,  // measure 45
0020
0000
0130
0100
,  // measure 46
0001
1000
0100
1000
,  // measure 47
2000
0000
3002
0000
,  // measure 48
0023
0000
0230
0300
,  // measure 49
1002
0000
0103
0100
,  // measure 50
0010
0001
0010
0100
,  // measure 51
2000
0000
3200
0000
,  // measure 52
0320
0000
2030
3000
,  // measure 53
0010
0100
1000
0001
,  // measure 54
0010
0100
0010
0001
,  // measure 55
0002
0103
2000
3010
,  // measure 56
0200
0301
0020
1030
,  // measure 57
2000
0000
3010
1000
,  // measure 58
0010
0100
0001
0010
,  // measure 59
0200
0301
2000
3001
,  // measure 60
0020
1030
0200
0310
,  // measure 61
1001
0001
0001
0001
,  // measure 62
1000
1000
1000
1000
,  // measure 63
0100
0100
0100
0100
,  // measure 64
0010
0100
0010
0100
,  // measure 65
0010
0001
0001
0001
,  // measure 66
1000
1000
1000
0100
,  // measure 67
0010
0100
0010
0001
,  // measure 68
0020
0000
0000
0000
,  // measure 69
0030
0000
0000
0000
;
