#TITLE:Steel Blade;
#SUBTITLE:(SSC Bonus Edit);
#ARTIST:Jean Love;
#TITLETRANSLIT:;
#SUBTITLETRANSLIT:;
#ARTISTTRANSLIT:;
#CREDIT:;
#BANNER:Steel Blade (SSC Bonus Edit)-bn.png;
#BACKGROUND:Steel Blade (SSC Bonus Edit)-bg.png;
#LYRICSPATH:;
#CDTITLE:Super Eurobeat 147.png;
#MUSIC:Steel Blade (SSC Bonus Edit).mp3;
#OFFSET:-3.602;
#SAMPLESTART:70.893;
#SAMPLELENGTH:12.000;
#SELECTABLE:YES;
#BPMS:0.000=152.996;
#STOPS:32.000=1.156
;
#BGCHANGES:;

//---------------dance-single - ----------------
#NOTES:
     dance-single:
     :
     Hard:
     7:
     0.549,0.504,0.284,0.408,0.000:
2000
0000
3001
0000
1000
0010
0100
0002
,
0000
0003
1001
0010
0000
0010
1001
0000
,
0001
1000
0001
0000
0100
0010
0100
0000
,
0002
2003
3020
0230
,
0301
1000
0010
0100
0001
1000
0001
1000
,
0100
0000
1100
1000
0000
0001
0101
0000
,
0001
1000
0010
0000
0100
0001
1000
0100
,
0010
0200
0000
2300
0000
3002
0000
0003
,
1001
0000
2000
0000
3001
0000
0100
0001
,
1000
0000
2010
0000
0010
0000
3010
0100
,
0002
1003
2000
3001
,
0010
0001
0010
0000
0001
0100
0010
0000
,
0100
0001
0010
0000
0011
0000
1001
0000
,
0010
0001
1000
0000
0010
0100
0010
0000
,
1000
0001
1000
0000
0001
0100
0010
0000
,
0100
0000
2002
0000
3003
0001
0000
0001
,
0000
1001
0000
0010
0010
0000
0010
0100
,
1001
0000
0102
0000
0100
0000
0103
0010
,
2000
3001
0002
1003
,
0100
1000
0100
0000
1000
0010
0100
0000
,
0001
0100
0010
0000
0110
0000
0101
0000
,
0010
1000
0001
0000
0100
0010
0100
0000
,
0001
0100
0010
0000
1000
0010
0100
0000
,
0001
0000
2002
0000
3003
1000
0000
1000
,
0000
1001
0000
0100
0100
0000
0100
0010
,
2000
0002
3003
0001
,
1001
0000
0001
1000
0001
0000
0100
0010
,
0100
0000
0001
0010
0100
0000
2000
0000
,
3001
0000
1000
0010
1000
0000
0010
0100
,
0010
0000
0200
0000
0300
0110
0000
1001
,
0000
0000
0001
1000
0020
0000
1030
0010
,
0200
0000
0301
0100
0002
0000
0023
0000
,
0031
0000
0010
0100
0010
0000
0001
1000
,
0010
1000
0010
0100
0010
1000
0000
1001
,
0000
2000
0010
3001
,
0001
1000
0001
0000
0100
0010
0100
0000
,
0001
0100
0020
0000
0100
0000
0130
0000
,
0100
0010
0200
0000
0010
0000
0010
0000
,
0310
0000
1000
0010
1000
0000
0001
0100
,
0001
0000
0100
0010
0100
0000
0001
0010
,
0100
0010
0002
0000
1000
0000
1003
0000
,
0010
1000
0020
0000
0000
2030
0000
0000
,
3001
2000
0010
3001
,
0001
1000
0001
0000
0100
0010
0100
0000
,
0001
0100
0001
0000
0100
0010
0100
0000
,
0001
0010
0100
0000
0010
0100
1000
0010
,
0100
0001
2000
0000
3010
1000
0020
0000
,
0130
0001
0200
0000
0310
0100
0001
0100
,
0010
0000
1010
0000
0000
1001
0000
0110
,
0000
1001
0000
0010
1000
0000
0001
0001
,
0001
0002
0100
1003
,
1000
0001
1000
0000
0010
0100
0010
0000
,
1000
0010
1000
0000
0010
0100
0010
0000
,
1000
0100
0010
0000
0100
0010
0001
0100
,
0010
1000
0002
0000
0103
0001
0200
0000
,
0310
1000
0020
0000
0130
0010
1000
0010
,
0100
0000
0101
0000
0000
1001
0000
0110
,
0000
1001
0000
0100
0001
0000
1000
1000
,
1000
0002
1000
0103
,
0100
0010
0100
0000
0001
1000
0000
0110
,
1001
0000
0010
1000
0010
0000
0100
0001
,
0100
0000
0010
0100
0001
0010
0100
1000
,
0010
2000
0010
3001
,
0001
1000
0010
0100
0001
0100
0010
1000
,
0001
0002
1000
0103
,
1000
0010
0100
0010
0000
0101
0000
1010
,
0000
2000
0000
3001
;

//---------------dance-single - ----------------
#NOTES:
     dance-single:
     :
     Medium:
     5:
     0.369,0.324,0.178,0.053,0.000: // measure 1
1000
0001
1000
0010
,  // measure 2
1000
0000
0001
0000
,  // measure 3
1000
0010
1000
0000
0010
0000
0100
0000
,  // measure 4
0001
0100
0010
0000
0100
0000
0001
0000
,  // measure 5
1000
0010
0100
0001
,  // measure 6
1001
0000
0010
0000
,  // measure 7
1000
0010
1000
0000
0001
0100
0001
0000
,  // measure 8
1000
0000
0000
0001
0000
1000
0000
0000
,  // measure 9
1001
0000
0000
0000
0000
0000
0010
0010
,  // measure 10
0010
2000
0000
3001
,  // measure 11
0000
0000
0000
1000
0000
0001
0000
1010
,  // measure 12
0000
0101
0000
0000
0010
1000
0000
0001
,  // measure 13
0000
1000
0000
0010
0100
0000
0010
0000
,  // measure 14
1000
0001
1000
0000
0010
0000
0100
0000
,  // measure 15
0001
1000
0010
0100
,  // measure 16
0001
0000
1010
0000
0000
0001
0000
1000
,  // measure 17
0000
0001
0000
1000
1000
0000
0010
0010
,  // measure 18
0010
0200
0000
0301
,  // measure 19
0000
0000
0000
0001
0000
1000
0000
0101
,  // measure 20
0000
1010
0000
0000
0100
0001
0000
1000
,  // measure 21
0000
0001
0000
0100
0010
0000
0100
0000
,  // measure 22
0001
1000
0001
0000
0100
0000
0010
0000
,  // measure 23
1000
0001
0100
0010
,  // measure 24
1000
0000
0101
0000
0000
1000
0000
0001
,  // measure 25
0000
1000
0000
0001
0001
0000
0100
0100
,  // measure 26
0100
0020
0000
0030
,  // measure 27
0000
0000
0010
1000
0010
0000
0100
0001
,  // measure 28
0100
0010
1000
0001
,  // measure 29
1000
0000
0010
1000
0010
0000
0100
0001
,  // measure 30
0100
0000
0010
0000
0000
0010
0000
1001
,  // measure 31
0000
0000
0010
1000
0010
0000
0100
0001
,  // measure 32
0100
0010
1000
0001
,  // measure 33
1000
0000
0010
1000
0010
0000
1000
0001
,  // measure 34
0100
0000
0010
0000
1000
1000
0000
1000
,  // measure 35
0000
0000
0002
0000
0000
0000
0003
1000
,  // measure 36
0000
1000
0000
0001
0000
1000
0000
0000
,  // measure 37
0010
1000
0010
0000
0000
0000
0010
0000
,  // measure 38
0100
0001
0100
0000
0010
0000
1000
0000
,  // measure 39
0001
0000
0000
1000
0010
1000
0010
0000
,  // measure 40
1000
0001
0100
0010
,  // measure 41
1000
0000
0001
0000
0000
1000
0000
0000
,  // measure 42
0010
0000
1001
0000
0000
0110
0000
0000
,  // measure 43
1001
0002
0000
1003
,  // measure 44
0000
0000
0000
0001
0000
1000
0000
0101
,  // measure 45
0000
1010
0000
0000
0100
0001
0000
1000
,  // measure 46
0000
0001
0000
0100
0010
0000
0100
0000
,  // measure 47
0001
1000
0001
0000
0100
0000
0010
0000
,  // measure 48
1000
0001
0100
0010
,  // measure 49
1000
0000
0101
0000
0000
1000
0000
0001
,  // measure 50
0000
1000
0000
0001
0001
0000
0100
0100
,  // measure 51
0100
0020
0000
1030
,  // measure 52
0000
0000
0000
1000
0000
0001
0000
1010
,  // measure 53
0000
0101
0000
0000
0010
1000
0000
0001
,  // measure 54
0000
1000
0000
0010
0100
0000
0010
0000
,  // measure 55
1000
0001
1000
0000
0010
0000
0100
0000
,  // measure 56
0001
1000
0010
0100
,  // measure 57
0001
0000
1010
0000
0000
1000
0000
0010
,  // measure 58
0000
0100
0000
0001
0001
0000
1000
1000
,  // measure 59
1000
0001
1000
0001
,  // measure 60
0100
0001
0000
1000
,  // measure 61
0000
0000
0001
0100
0001
0000
0100
0000
,  // measure 62
0010
0000
1000
0010
0100
0000
0010
0000
,  // measure 63
1000
0001
0100
0010
,  // measure 64
1000
1001
0000
0100
,  // measure 65
0000
0000
0001
0100
0001
0000
1000
0010
,  // measure 66
1000
0000
0001
0000
0000
1000
0000
0001
,  // measure 67
0000
1001
0000
0000
;

//---------------dance-single - ----------------
#NOTES:
     dance-single:
     :
     Easy:
     3:
     0.207,0.261,0.036,0.053,0.000: // measure 1
1000
0000
0001
0000
,  // measure 2
1000
0000
0000
0000
,  // measure 3
0001
0001
1000
1000
,  // measure 4
0010
0010
0100
0100
,  // measure 5
0001
0000
1000
0000
,  // measure 6
0100
0000
0000
0000
,  // measure 7
0010
0010
0100
0100
,  // measure 8
1000
0000
0001
0000
,  // measure 9
1001
0000
0000
1000
,  // measure 10
1000
0002
0000
1003
,  // measure 11
0000
0000
1000
0000
,  // measure 12
0001
0000
1000
0000
,  // measure 13
0010
0000
0100
0100
,  // measure 14
0010
0100
0000
0001
,  // measure 15
0000
1000
0000
0010
,  // measure 16
0000
0100
0000
0010
,  // measure 17
0000
0100
0000
0001
,  // measure 18
0001
2000
0000
3001
,  // measure 19
0000
1000
0000
0001
,  // measure 20
0000
1000
0000
0010
,  // measure 21
0000
0100
0100
0000
,  // measure 22
0010
0010
0000
0100
,  // measure 23
0000
0001
0000
1000
,  // measure 24
0000
0001
0000
1000
,  // measure 25
0000
0010
0000
0100
,  // measure 26
0100
0020
0000
0000
,  // measure 27
0030
0100
0000
0001
,  // measure 28
0000
1000
0001
1000
,  // measure 29
0000
0001
0000
1000
,  // measure 30
0000
0010
1010
0000
,  // measure 31
0000
0100
0000
0001
,  // measure 32
0000
0100
0010
0100
,  // measure 33
0000
0001
0000
1000
,  // measure 34
0000
0010
1000
0010
,  // measure 35
0000
0200
0000
0000
,  // measure 36
0000
0010
0000
0310
,  // measure 37
0000
0010
0000
0000
,  // measure 38
0100
0100
0000
0100
,  // measure 39
0000
0002
0000
1000
,  // measure 40
0000
1000
0000
1003
,  // measure 41
0000
2000
0000
0010
,  // measure 42
0000
0010
0000
3010
,  // measure 43
0000
1001
0000
0001
,  // measure 44
0000
1000
1000
0001
,  // measure 45
0000
1000
0010
0100
,  // measure 46
0000
0001
0000
1000
,  // measure 47
0000
1000
0000
0010
,  // measure 48
0000
0100
0000
0010
,  // measure 49
0000
0100
0000
0001
,  // measure 50
0000
1000
0001
0010
,  // measure 51
0100
1001
0000
1000
,  // measure 52
0000
0001
0001
1000
,  // measure 53
0000
0001
0100
0010
,  // measure 54
0000
1000
0000
0001
,  // measure 55
0000
0001
0000
0100
,  // measure 56
0000
0010
0000
0100
,  // measure 57
0000
0010
0000
1000
,  // measure 58
0000
0001
1000
0100
,  // measure 59
0010
0001
0000
1000
,  // measure 60
0000
0001
0000
0000
,  // measure 61
0000
1000
1000
0001
,  // measure 62
0001
0100
0100
0010
,  // measure 63
0010
1000
0000
0001
,  // measure 64
0000
0010
0000
0000
,  // measure 65
0000
0100
0100
0010
,  // measure 66
0010
0001
0000
0000
;
