#TITLE:Stars;
#SUBTITLE:(S3RL Remix);
#ARTIST:JTS feat. Nathalie;
#TITLETRANSLIT:;
#SUBTITLETRANSLIT:;
#ARTISTTRANSLIT:;
#CREDIT:;
#BANNER:Stars (S3RL Remix)-bn.png;
#BACKGROUND:Stars (S3RL Remix)-bg.png;
#LYRICSPATH:;
#CDTITLE:JTS.png;
#MUSIC:Stars (S3RL Remix).mp3;
#OFFSET:-5.140;
#SAMPLESTART:65.070;
#SAMPLELENGTH:12.000;
#SELECTABLE:YES;
#BPMS:0.000=177.080,81.000=88.540,113.000=44.270,121.000=176.960;
#STOPS:121.000=0.020
;
#BGCHANGES:;

//---------------dance-single - ----------------
#NOTES:
     dance-single:
     :
     Hard:
     8:
     0.564,0.665,0.327,0.256,0.154:
0000
1000
0000
1000
0000
2000
0000
3000
,
0000
0010
1000
0000
0010
0000
1010
0000
,
0000
0001
0000
0001
0000
0002
0000
0003
,
0000
0100
0001
0000
0100
0000
0002
0000
,
1003
0000
1001
0000
0001
1000
0001
0000
,
0001
0100
0010
0000
0010
1000
0100
1000
,
0010
0100
0002
0000
0203
0000
0320
0000
,
2030
0000
3001
0000
0100
0001
1000
0100
,
1000
0000
0100
0000
1000
0000
0000
1000
0000
0000
1000
0000
0000
0000
0001
0000
,
0100
0000
0001
0000
0010
0000
0000
0100
0000
0000
0100
0000
0000
0000
1000
0000
,
0000
0000
0100
0000
1000
0000
0000
0010
0000
0000
0010
0000
1000
0000
0100
0000
,
1000
0000
0010
0000
0100
0000
0000
0001
0000
0000
0100
0000
0010
0000
0100
0000
,
0001
0100
1001
0000
0001
1000
0010
0000
,
0010
1000
0100
0000
0100
0000
0010
0100
,
0010
0100
2000
0000
3200
0000
0320
0000
,
0032
0000
1003
0010
1000
0001
1000
0001
,
1000
0000
0010
0000
1000
0000
0000
0100
0000
0000
0010
0000
0001
0000
0000
0000
,
1000
0000
0001
0000
0010
0000
0000
0001
0000
0000
0010
0000
0100
0000
0000
0000
,
1000
0000
0001
0000
0010
0000
0000
0010
0000
0000
0001
0000
1000
0000
0100
0000
,
1000
0000
0100
0000
1000
0000
0000
0010
0000
0000
0100
0000
0001
0000
0000
0000
,
1000
0000
0010
0000
1000
0000
0010
0000
0000
1000
0010
0000
0000
1000
0001
0000
,
0000
1000
0001
0000
1000
0000
0010
0000
0000
0100
0010
0000
0000
0100
0001
0000
,
0000
0100
0010
0000
0010
0000
1000
0000
0000
0100
1000
0000
0000
0010
1000
0000
,
0000
0000
0101
0000
0010
0000
0000
0000
0010
0000
0000
0000
1000
0100
1000
0000
,
0001
0100
0001
0000
0010
0000
0010
0000
0010
0000
0000
0000
0010
0000
0010
0000
,
0010
0000
0100
0100
0100
0100
1000
0010
,
0100
0001
0100
0000
0010
0000
0100
0000
0001
0100
0001
0100
0001
0000
1001
0000
,
0010
0100
0010
0000
0010
0000
1000
0000
1000
0010
1000
0000
0002
0000
1003
0000
,
0100
0001
0100
0000
1002
0000
0103
0000
0100
0100
0001
0000
0001
0001
1000
0000
,
0100
0100
0010
0000
2002
0000
0000
0000
0000
0000
0000
0000
0000
0000
0000
0000
,
0000
0000
0000
3003
0110
0000
0000
0000
0110
0000
0000
0000
0010
0000
0100
0000
,
0010
0000
1001
0000
1000
0100
0001
0100
,
1000
0001
0011
0000
0011
0000
0001
0010
,
0001
0000
0010
0000
0001
0010
0100
1000
,
0100
0000
1000
0000
0100
0000
0000
0100
0000
0000
1010
0000
0000
0000
0010
0000
,
0001
0000
0010
0000
1000
0000
0000
0001
0000
0000
0101
0000
0000
0000
0010
0000
,
0000
0000
1000
0000
0010
0000
0000
0100
0000
0000
0001
0000
0010
0000
0001
0000
,
0100
0000
0001
0000
1000
0000
0000
0100
0000
0000
1000
0000
0001
0000
1000
0000
,
0100
1000
0110
0000
0110
0000
0001
0010
,
0001
0000
1001
0000
0001
0100
1000
0100
,
0010
1000
0110
0000
0110
0000
0100
0010
,
0100
0000
0010
1000
0100
1000
0001
0010
,
0001
0000
0010
0000
0001
0000
0000
1000
0000
0000
0001
0000
0100
0000
0000
0000
,
0001
0000
1000
0000
0010
0000
0000
0100
0000
0000
0001
0000
0100
0000
0000
0000
,
0001
0000
0010
0000
0001
0000
0000
0001
0000
0000
0100
0000
0010
0000
1000
0000
,
0010
0000
1000
0000
0010
0000
0000
0100
0000
0000
0001
0000
1000
0000
0000
0000
,
0010
0100
0001
0010
0100
0000
1000
0010
,
1000
0000
0001
0100
0001
0000
0100
0010
,
2000
0000
3001
0100
0002
0000
1003
0100
,
2000
0000
3001
0100
0001
0000
0110
0000
,
0010
0100
0010
0100
0001
0000
0010
0001
,
0020
0000
0130
1000
0200
0000
1300
0010
,
1000
0001
0010
0100
2000
0000
3001
0010
,
0001
0100
0010
0000
0010
0010
0100
0001
,
1000
0000
1001
0000
1001
0000
1000
0001
,
1001
0000
2000
0000
3010
0000
0001
0100
,
0101
0000
1010
0000
0101
0000
0100
0002
,
1003
0000
1001
0000
0110
0000
1000
0020
,
0130
0000
0101
0000
1010
0000
0010
0100
,
0010
1000
2001
0000
3010
0000
1000
0100
,
1100
0000
0101
0000
1010
0000
0100
0010
,
0110
2002
0003
3001
,
1000
2002
0000
3003
;

//---------------dance-single - ----------------
#NOTES:
     dance-single:
     :
     Medium:
     5:
     0.335,0.360,0.044,0.194,0.000:
0000
0100
0000
0100
0000
0100
0000
0000
,
0000
0010
0010
0010
,
0000
0100
0000
0100
0000
0100
0000
0000
,
0000
0010
0010
0010
,
1000
0001
1000
0001
,
1000
0010
1000
0010
,
1000
0002
0000
2003
,
0000
3010
1000
0010
,
0000
0000
0100
0000
0000
0100
0000
0000
,
0000
0000
0010
0000
0000
0010
0000
0000
,
0000
0100
0000
0100
,
0000
0010
0010
0010
,
1000
0001
1000
0001
,
0010
0001
0100
0001
,
1000
0002
0000
0203
,
0000
0310
1000
0001
,
1000
0010
1000
0000
0000
0010
0000
0000
,
0000
0000
0100
0000
0000
0010
0000
0000
,
0000
0200
0000
0310
,
0000
0002
0000
1003
,
1000
0010
0010
0020
,
0000
0230
0000
0300
,
0000
1000
0002
0000
0000
0000
2003
0000
,
0000
3010
0000
0110
,
0000
0000
0001
0000
0001
0000
0001
0001
,
0001
0000
1000
0000
1000
0000
1000
1000
,
1000
0000
0010
0000
0010
0000
0010
0010
,
0010
0000
0100
0000
0100
0000
0100
0100
,
0100
0020
0000
0000
,
0000
0030
0000
0000
,
0000
0000
0000
0001
0010
0000
0001
0010
,
0001
0000
0010
0000
0100
0000
1000
0010
,
1000
0000
0010
0000
0010
0000
0100
0010
,
0100
0000
0001
0000
1000
0000
0001
1000
,
0001
1000
1000
2000
,
0000
3000
0001
0000
0001
0000
0002
0000
,
0000
0003
0100
0000
0100
0000
0100
0000
,
0010
0100
0100
0010
,
0100
0000
0010
0000
1000
0000
0010
1000
,
0010
0000
0100
0000
0001
0000
0010
0001
,
0010
0000
0002
0000
0013
0000
0100
0010
,
0100
0000
2000
0000
3100
0000
1000
0100
,
0010
0001
0001
0002
,
0000
0003
1000
0000
1000
0000
2000
0000
,
0000
3000
0010
0000
0010
0000
0020
0000
,
0130
0010
0100
0001
,
1000
0000
0010
1000
0010
0000
0100
0001
,
0100
0010
0010
0100
,
0100
0000
0001
0010
0001
0000
0010
0100
,
0010
0100
0100
1000
,
1000
0000
0010
1000
0010
0000
0100
0010
,
0100
0000
0001
0000
0010
0000
0100
0010
,
0100
0000
0010
0000
0001
0000
1000
0001
,
1000
0000
0010
0000
0010
0000
0100
0001
,
0100
0000
0101
0000
1010
0000
0010
1000
,
0010
0000
0100
0000
0001
0000
0010
0001
,
0010
0000
0002
0000
1003
0000
0010
1000
,
0010
0000
0200
0000
0301
0000
0100
0010
,
0100
0000
0010
0000
1000
0000
0001
1000
,
0010
1000
0010
0000
0100
0000
0010
0100
,
0010
0000
1000
0000
0001
0000
0010
0100
,
0010
0110
0000
0001
,
1000
2002
0000
3003
;

//---------------dance-single - ----------------
#NOTES:
     dance-single:
     :
     Easy:
     4:
     0.261,0.332,0.177,0.168,0.000:
0000
0010
0000
0000
,
0000
0010
0000
0010
,
0000
0010
0000
0000
,
0000
0100
0000
0100
,
0000
0010
0000
0100
,
0000
0010
0000
0100
,
0010
0100
0000
0001
,
1000
0001
1000
0010
,
1000
0010
0000
1010
,
0000
0001
0000
0101
,
0000
0100
0000
0110
,
0000
0010
0000
1010
,
0000
0001
0000
1000
,
0000
0001
1000
0001
,
0000
0100
0010
0100
,
0000
0001
1000
0010
,
1000
0002
0003
1000
,
0000
0200
0000
0310
,
0000
0002
0000
1003
,
0000
0020
0000
0130
,
0000
0020
0000
0000
,
0000
0030
0000
0000
,
0000
0200
0000
0000
,
0000
0310
0000
0100
,
0000
0001
0000
0001
,
0000
1000
1000
1000
,
0001
0001
0100
0010
,
0100
0010
0100
0001
,
1000
0020
0000
0000
,
0000
0030
0000
0000
,
0000
0001
0000
1000
,
0000
0010
1000
0010
,
0000
0010
1000
0010
,
0100
0010
0100
0001
,
0010
0011
0000
0100
,
0000
0101
0000
0000
,
0000
1010
0000
1010
,
0000
0101
0101
0101
,
0101
1000
0010
1000
,
0010
0100
0001
1000
,
0001
1000
1000
1000
,
1000
0001
0001
0001
,
1000
0002
0000
1003
,
0000
0200
0000
0310
,
0000
0002
0000
1003
,
0000
2000
0000
3010
,
1000
0010
1000
0010
,
1000
0020
0000
0230
,
0000
0320
0000
0230
,
0000
0310
0100
0010
,
1000
0001
1000
0001
,
1000
0020
0000
0230
,
0000
0301
0001
0001
,
0000
1000
1000
1000
,
0000
0010
1000
0010
,
1010
0100
0001
0100
,
0110
0010
0010
0100
,
0110
0100
0100
0010
,
0110
0001
1000
0001
,
1000
0010
0010
1010
,
1010
0100
0010
0100
,
0001
1001
0000
1000
,
0001
2002
0000
3003
;

//---------------dance-single - ----------------
#NOTES:
     dance-single:
     :
     Beginner:
     2:
     0.165,0.166,0.018,0.185,0.000:
0000
1000
0000
0000
,
0000
0000
0000
0000
,
0000
0001
0000
0000
,
0000
0000
0000
0000
,
0000
1000
0000
0010
,
0000
1000
0000
0010
,
0000
0100
0000
0010
,
0000
0100
0000
0001
,
0000
2000
0000
0000
,
3000
0002
0000
0000
,
0003
0200
0000
0000
,
0300
0020
0000
0000
,
0030
0100
0000
0010
,
0000
1000
0000
0001
,
0000
1000
0010
1000
,
0000
0001
0100
0001
,
0000
0200
0000
0000
,
0300
0020
0000
0000
,
0030
0200
0000
0000
,
0300
0002
0000
0000
,
0003
2000
0000
0000
,
0000
3000
0000
0000
,
0000
0002
0000
0000
,
0003
0100
0000
0010
,
0000
0100
0000
0100
,
0000
0000
0100
0100
,
0000
0010
0000
0010
,
0000
0010
0010
0010
,
0100
0002
0000
0000
,
0000
0003
0000
0000
,
0000
0010
0000
0100
,
0000
0010
0000
0100
,
0000
0001
0001
0001
,
0000
1000
1000
1000
,
0000
0200
0000
0300
,
0000
0020
0000
0030
,
0000
2000
0000
3000
,
0000
0002
0000
0003
,
0000
1000
1000
1000
,
0000
0001
0001
0001
,
0000
1000
0000
0001
,
0000
0010
0000
0100
,
0000
2000
0000
3000
,
0000
0002
0000
0003
,
0000
0200
0000
0300
,
0000
0020
0000
0030
,
0000
0100
0000
0100
,
0000
0100
0000
0100
,
0000
0010
0000
0010
,
0000
0010
0010
0010
,
0000
1000
0000
1000
,
0000
1000
0000
1000
,
0000
0001
0001
0001
,
0000
1000
1000
1000
,
0000
0010
0000
0100
,
0000
0010
0000
0100
,
0000
0010
0000
0100
,
0000
0001
1000
0001
,
0000
1000
0000
0001
,
0000
1000
0001
1000
,
0000
0010
0000
0100
,
0000
1001
0000
0000
,
0000
2002
0000
3003
;
