#TITLE:Spaceman;
#SUBTITLE:;
#ARTIST:Water Queen;
#TITLETRANSLIT:;
#SUBTITLETRANSLIT:;
#ARTISTTRANSLIT:;
#CREDIT:;
#BANNER:Spaceman-bn.png;
#BACKGROUND:Spaceman-bg.png;
#LYRICSPATH:;
#CDTITLE:cd.png;
#MUSIC:Spaceman.mp3;
#OFFSET:-6.502;
#SAMPLESTART:38.310;
#SAMPLELENGTH:12.000;
#SELECTABLE:YES;
#BPMS:0.000=150.870;
#STOPS:;
#BGCHANGES:;

//---------------dance-single - ----------------
#NOTES:
     dance-single:
     :
     Hard:
     9:
     0.621,0.606,0.302,0.406,0.244:
2000
0001
0010
3001
,
0002
0100
1000
0013
,
0020
0100
0100
0130
,
2002
0000
0000
3003
,
1001
0000
0000
0001
1000
0000
0001
0000
1000
0100
1000
0000
0100
0000
1000
0000
,
1010
0000
0000
0010
1000
0000
0010
0000
0100
0001
0100
0000
0010
0000
0100
0000
,
0101
0000
0000
0001
1000
0000
0001
0000
0010
0100
0010
0000
0100
0000
1000
0000
,
1001
0000
0000
1000
0001
0000
0100
0000
0001
1000
0001
0000
0100
0000
0010
0000
,
0101
0000
0000
0100
0001
0000
0100
0000
0001
1000
0001
0000
1000
0000
0001
0000
,
0011
0000
0000
0010
0001
0000
0010
0000
0001
0100
0001
0000
0100
0000
0010
0000
,
1001
0000
0000
1000
0001
0000
1000
0000
0010
1000
0010
0000
1000
0000
0100
0000
,
1100
0000
0000
1000
0001
0000
1000
0000
0010
0100
0010
0000
1000
0000
0010
0000
,
1000
0000
0010
1000
0010
0000
0100
0000
0001
0100
0001
0000
2000
0000
0000
0000
,
3001
0000
0010
0001
0010
0000
0000
0000
0010
0100
0010
0000
1001
0000
0000
0000
,
1000
0000
0001
0100
0001
0000
0100
0000
0010
1000
0010
0000
0200
0000
0000
0000
,
0301
0000
0010
0001
0010
0000
0000
0000
0001
1000
0001
0000
1001
0000
0000
0000
,
0010
0000
1000
0100
1000
0000
0001
0000
0010
0001
0100
0000
0002
0000
0000
0000
,
0013
0000
0100
0010
0100
0000
0000
0000
1000
0001
0100
0000
1010
0000
0000
0000
,
1000
0000
0010
1000
0010
0000
0100
0000
0001
0100
0001
0000
0020
0000
0000
0000
,
0031
0000
1000
0001
2000
0000
0000
0000
3002
0000
0000
0000
1003
0000
0000
0000
,
1002
0000
1003
0000
1000
0010
1000
0000
,
0010
0100
0010
0100
0010
0100
0010
0100
,
0020
0230
0302
2003
,
3002
2000
0000
3003
,
1000
0001
1000
0000
1000
0001
1000
0010
,
1000
0010
0100
0001
1000
0010
1000
0001
,
2000
0001
0010
3001
,
0020
1000
0100
1030
,
2001
0000
3001
0000
0010
0100
0010
0000
,
0100
0001
0100
0001
0100
0001
0100
0001
,
0200
0320
2030
3002
,
2003
0000
0002
3003
0000
0110
1001
0000
,
0001
1000
0010
0000
0010
1000
0001
0100
,
0001
0100
0010
1000
0001
0100
0001
1000
,
0002
1000
0100
1003
,
0200
0001
0010
0301
,
1001
0000
0000
0001
1000
0000
0001
0000
1000
0010
1000
0000
0010
0000
0100
0000
,
0110
0000
0000
0100
0010
0000
0100
0000
0001
0100
0001
0000
0100
0000
0010
0000
,
1001
0000
0000
0010
1000
0000
0010
0000
1000
0100
1000
0000
0100
0000
0010
0000
,
1001
0000
0000
0010
0001
0000
0010
0000
0001
0010
0001
0000
0010
0000
0100
0000
,
1010
0000
0000
0010
1000
0000
0010
0000
1000
0010
1000
0000
0010
0000
1000
0000
,
0110
0000
0000
0100
0010
0000
0100
0000
0010
0100
0010
0000
0100
0000
0001
0000
,
0101
0000
0000
0001
0100
0000
0001
0000
0010
0100
0010
0000
0001
0000
0100
0000
,
0101
0000
0000
0001
1000
0000
0001
0000
1000
0010
1000
0000
0010
0000
1000
0000
,
2002
0000
3003
0000
1000
0001
0010
0000
,
0001
0010
0001
0000
0010
0100
1000
0000
,
2002
0000
3003
0000
0001
0010
0001
0000
,
1000
0010
1000
0000
0100
0001
0100
0000
,
2200
0000
3300
0000
0100
0010
0100
0000
,
0010
0001
0010
0000
1000
0010
1000
0000
,
0022
0000
0033
0000
1000
0100
1000
0000
,
1000
0010
1000
0000
1000
0100
0010
0000
,
2002
0000
0000
0000
,
3003
0000
0000
0000
;

//---------------dance-single - ----------------
#NOTES:
     dance-single:
     :
     Medium:
     5:
     0.365,0.358,0.229,0.281,0.000: // measure 1
2000
0001
0001
3001
,  // measure 2
0002
1000
1000
1003
,  // measure 3
1000
0010
0100
0010
,  // measure 4
2002
0000
3003
0000
,  // measure 5
1001
0000
0000
0000
1000
0001
1000
0000
,  // measure 6
1010
0000
0000
0000
1000
0010
1000
0000
,  // measure 7
0101
0000
0000
0000
0100
0010
0100
0000
,  // measure 8
1001
0000
0000
0000
1000
0100
1000
0000
,  // measure 9
0011
0000
0000
0000
0001
0010
0001
0000
,  // measure 10
0110
0000
0000
0000
0010
1000
0010
0000
,  // measure 11
0110
0000
0000
0000
0100
0001
0100
0000
,  // measure 12
0110
0000
0000
0000
1000
0010
1000
0000
,  // measure 13
0020
0000
1000
1030
,  // measure 14
0200
0000
0001
0301
,  // measure 15
0002
0000
0100
0103
,  // measure 16
0200
0000
0010
0310
,  // measure 17
1000
0010
1000
0000
0001
0100
0001
0000
,  // measure 18
1000
0010
1000
0000
0010
0100
0010
0000
,  // measure 19
0100
0001
0100
0000
0001
1000
0001
0000
,  // measure 20
0010
0100
0010
0000
0001
0000
1000
0000
,  // measure 21
2000
0000
3002
0000
,  // measure 22
1003
0010
1000
0001
,  // measure 23
0100
0010
1000
0001
,  // measure 24
1000
2002
0000
3003
,  // measure 25
0001
0000
1000
0000
0010
1000
0010
0000
,  // measure 26
0100
0000
0001
0000
1000
0001
1000
0000
,  // measure 27
0010
1000
0001
0010
,  // measure 28
0002
0023
0230
2300
,  // measure 29
3010
1000
0010
0000
0100
0000
0001
0000
,  // measure 30
1000
0001
1000
0000
0010
0000
0100
0000
,  // measure 31
0010
0100
0001
1000
,  // measure 32
0001
2002
0000
3003
,  // measure 33
0001
0000
1000
0000
0010
1000
0010
0000
,  // measure 34
0100
0000
0001
0000
0100
0010
0100
0000
,  // measure 35
0010
1000
0001
0010
,  // measure 36
0200
1000
1000
1300
,  // measure 37
1010
0000
0000
0000
0010
1000
0010
0000
,  // measure 38
0110
0000
0000
0000
0100
0001
0100
0000
,  // measure 39
0110
0000
0000
0000
0010
1000
0010
0000
,  // measure 40
1010
0000
0000
0000
1000
0100
1000
0000
,  // measure 41
0110
0000
0000
0000
0010
0001
0010
0000
,  // measure 42
0110
0000
0000
0000
0001
1000
0001
0000
,  // measure 43
1010
0000
0000
0000
0010
1000
0010
0000
,  // measure 44
0101
0000
0000
0000
0100
0010
0100
0000
,  // measure 45
0002
0000
0000
0000
,  // measure 46
1003
1000
0010
0010
,  // measure 47
0200
0000
0000
0000
,  // measure 48
0310
0010
0100
0001
,  // measure 49
2002
0000
0000
3003
,  // measure 50
0001
1000
0010
0100
,  // measure 51
2020
0000
0000
3030
,  // measure 52
0010
1000
0001
0010
,  // measure 53
2002
0000
0000
0000
,  // measure 54
3003
0000
0000
0000
;

//---------------dance-single - ----------------
#NOTES:
     dance-single:
     :
     Easy:
     3:
     0.250,0.248,0.031,0.187,0.000: // measure 1
1000
0000
0000
0000
,  // measure 2
0001
0000
0000
0000
,  // measure 3
1000
0000
0000
0000
,  // measure 4
1001
0000
0000
0000
,  // measure 5
0010
0000
0010
0010
,  // measure 6
0100
0000
0100
0100
,  // measure 7
0001
0000
0001
0001
,  // measure 8
1000
0000
1000
1000
,  // measure 9
0010
0000
1000
0001
,  // measure 10
1000
0000
0010
0100
,  // measure 11
0010
0000
0100
0001
,  // measure 12
0100
0000
0010
1000
,  // measure 13
0020
0030
0010
0010
,  // measure 14
0200
0300
0100
0100
,  // measure 15
0002
0003
0001
0001
,  // measure 16
1000
0001
1000
0001
,  // measure 17
2000
3000
1000
1000
,  // measure 18
0020
0000
0130
0100
,  // measure 19
0002
0000
0003
0001
,  // measure 20
1000
0010
1000
0010
,  // measure 21
1000
0000
0001
0000
,  // measure 22
1000
0010
0100
0010
,  // measure 23
2000
0002
0000
0000
,  // measure 24
3003
0000
0000
0000
,  // measure 25
1000
0010
0100
0001
,  // measure 26
1000
0010
0100
0010
,  // measure 27
2000
0000
3002
0000
,  // measure 28
1003
0010
0100
0001
,  // measure 29
1000
0000
0001
0000
,  // measure 30
1000
0010
0100
0001
,  // measure 31
0200
0020
0000
0000
,  // measure 32
0330
0000
0000
0000
,  // measure 33
1000
0010
0100
0001
,  // measure 34
1000
0010
1000
0010
,  // measure 35
2000
0000
3002
0000
,  // measure 36
1003
0001
1000
0001
,  // measure 37
0100
0000
0100
0100
,  // measure 38
0010
0000
0010
0010
,  // measure 39
1000
0000
1000
1000
,  // measure 40
0001
0000
0001
0001
,  // measure 41
0100
0000
0001
1000
,  // measure 42
0001
0000
0100
0010
,  // measure 43
0100
0000
0010
1000
,  // measure 44
0010
0000
0100
0001
,  // measure 45
0200
0000
0000
0000
,  // measure 46
0310
0010
0010
0010
,  // measure 47
1001
0000
1000
0001
,  // measure 48
1000
0001
0100
0010
,  // measure 49
0200
0000
0000
0000
,  // measure 50
0310
0100
0001
0010
,  // measure 51
1010
0000
0100
0010
,  // measure 52
1000
0001
1000
0010
,  // measure 53
2000
0002
0000
0000
,  // measure 54
3003
0000
0000
0000
;
