#TITLE:Shot Shot Shot;
#SUBTITLE:;
#ARTIST:Giorgia V.;
#TITLETRANSLIT:;
#SUBTITLETRANSLIT:;
#ARTISTTRANSLIT:;
#CREDIT:;
#BANNER:Shot Shot Shot-bn.png;
#BACKGROUND:Shot Shot Shot-bg.png;
#LYRICSPATH:;
#CDTITLE:Super Eurobeat 196.png;
#MUSIC:Shot Shot Shot.mp3;
#OFFSET:-6.230;
#SAMPLESTART:55.190;
#SAMPLELENGTH:12.000;
#SELECTABLE:YES;
#BPMS:0.000=154.980;
#STOPS:;
#BGCHANGES:;

//---------------dance-single - ----------------
#NOTES:
     dance-single:
     :
     Hard:
     8:
     0.633,0.609,0.492,0.482,0.151:
0001
1000
0001
0000
0100
0010
0100
0000
,
0001
0010
0001
0000
1000
0100
1002
0000
,
1003
0010
1000
0000
0001
1000
0001
0000
,
0100
0010
0100
0000
0001
1000
2001
0000
,
3001
0001
0001
0000
1000
1000
1000
0000
,
1000
0001
0100
0010
1000
0000
2001
0000
,
3010
0010
0010
0000
0100
0100
0100
0002
,
0000
1003
0001
0000
0110
0000
1001
0000
,
2010
3001
0102
1003
,
0001
1000
0001
1000
0001
0000
0100
0001
0100
0001
0100
0000
0000
0000
0010
0000
,
1002
0013
2001
3100
,
1000
0010
0000
1000
0000
0000
0010
0000
1000
0001
1000
0001
1000
0000
0000
0000
,
0012
1003
2100
3001
,
1000
0001
1000
0001
1000
0000
0010
0100
0010
0100
0010
0000
0000
0000
0100
0000
,
2001
3100
1002
0013
,
0001
0100
0000
0001
0000
0000
0100
0000
0001
0000
0100
0000
0001
0000
0000
0000
,
1000
0000
0100
0000
1000
0000
0010
0100
0000
0000
0010
0000
1000
0000
0001
0000
,
0100
0010
0000
1001
0000
1000
0001
0000
,
0100
0010
1000
0001
0100
0001
1000
0010
,
0100
0001
0000
0110
0000
0001
1000
0000
,
0010
0000
1000
0000
0100
0000
1000
0100
0000
0000
0010
0000
0001
0000
1000
0000
,
0001
0100
0000
1001
0000
0001
1000
0020
,
0000
0130
0010
1000
0001
1000
0000
1100
,
0000
0011
0000
0001
2000
0000
3001
0000
,
1000
0010
0100
0002
0000
1003
0000
1001
,
0000
0001
1000
0000
0002
0000
2003
0000
,
3010
1000
0100
2000
0000
3020
0000
0230
,
0000
0302
0000
0013
0200
0000
1300
0000
,
0010
1000
0010
0100
0001
0100
0010
1001
,
0000
0100
0010
1000
0001
0001
0001
0000
,
0100
0100
0200
0000
0310
0020
0000
0130
,
0000
0002
0000
2000
0000
0000
3003
0000
,
1001
0011
1001
1100
,
1000
0010
0100
0001
0100
0010
1000
0200
,
0000
0310
0001
2000
0000
3001
0001
1000
,
0100
1000
0010
0010
0000
0010
1001
0000
,
0101
1010
0110
1001
,
0001
0100
0010
1000
0100
1000
0010
0200
,
0000
0302
0000
2003
0000
3010
0100
0000
,
0001
1000
0100
0000
0110
0000
1001
0000
,
0110
0110
1001
1001
,
0100
0010
0100
0001
1000
0010
1000
0200
,
0000
0310
0001
2000
0000
3100
1000
0001
,
0010
0001
0000
1001
0000
0010
0100
0000
,
1010
1010
0101
0101
,
0100
0010
1000
0001
1000
0010
0100
0002
,
0000
0203
0000
0320
0000
1030
0002
0000
,
1003
0100
1000
0000
0010
0100
0001
1000
,
0020
2030
3001
1001
,
0102
1003
2010
3001
,
1000
0001
1000
0001
1000
0000
0010
1000
0010
1000
0010
0000
0000
0000
0100
0000
,
2001
3100
1002
0013
,
0001
0100
0000
0001
0000
0000
0100
0000
0001
1000
0001
1000
0001
0000
0000
0000
,
2100
3001
0012
1003
,
0001
1000
0001
1000
0001
0000
0100
0010
0100
0010
0100
0000
0000
0000
0010
0000
,
1002
0013
2001
3100
,
1000
0010
0000
1000
0000
0000
0010
0000
1000
0000
0010
0000
1000
0000
0000
0000
,
0002
0000
0000
1003
;

//---------------dance-single - ----------------
#NOTES:
     dance-single:
     :
     Medium:
     5:
     0.406,0.372,0.201,0.050,0.000: // measure 1
1000
0001
1000
0010
,  // measure 2
1000
0010
1000
0000
0001
0000
1000
0000
,  // measure 3
0010
0100
0001
1000
,  // measure 4
0100
0000
0010
0000
0001
1000
0001
0000
,  // measure 5
1000
0010
0100
0001
,  // measure 6
1000
0000
0010
0000
0100
0010
0100
0000
,  // measure 7
0010
0000
1000
0000
0001
0000
0010
0001
,  // measure 8
0000
1000
0010
0000
1000
0000
0001
0000
,  // measure 9
1000
0010
1000
1001
,  // measure 10
0010
1000
0010
0000
0100
0001
0100
0000
,  // measure 11
0010
1000
0100
1001
,  // measure 12
0001
1000
0001
0000
1000
0010
1000
0000
,  // measure 13
0010
0100
0010
1001
,  // measure 14
0010
1000
0010
0000
0100
0001
0100
0000
,  // measure 15
0001
0010
0100
1001
,  // measure 16
0001
1000
0001
0000
0010
0001
0010
0000
,  // measure 17
0001
1000
0010
1000
,  // measure 18
0001
1000
0010
0000
0100
0000
0000
0000
,  // measure 19
0001
1000
0010
0000
1000
0000
0001
0000
,  // measure 20
0100
0010
1000
0000
,  // measure 21
0001
1000
0010
0100
,  // measure 22
0010
0100
0010
0000
2000
0000
3000
0000
,  // measure 23
0001
0000
1000
0000
0010
1000
0000
0001
,  // measure 24
0000
1000
0000
0000
0010
0000
0010
0000
,  // measure 25
0100
0010
0100
0010
,  // measure 26
1000
0001
1000
0000
0010
0000
1000
0000
,  // measure 27
0001
1000
0010
0100
,  // measure 28
0001
0100
0001
0000
1000
0000
0010
0000
,  // measure 29
1000
0010
1000
0000
0001
0000
1000
0000
,  // measure 30
0001
0100
0001
0000
1000
0000
0010
0000
,  // measure 31
0000
1000
0010
0000
0100
0001
0000
1000
,  // measure 32
0000
0010
0000
1000
0000
0000
0000
0000
,  // measure 33
0001
0100
1001
1000
,  // measure 34
0001
0100
0001
0000
1000
0010
1000
0000
,  // measure 35
0001
0100
0001
1000
,  // measure 36
0101
1010
1001
0000
,  // measure 37
1000
0100
1001
1000
,  // measure 38
0001
0100
0001
0000
1000
0010
1000
0000
,  // measure 39
0001
0001
1000
1000
,  // measure 40
0001
0100
0010
1000
,  // measure 41
1001
0010
1001
0001
,  // measure 42
1000
0010
1000
0000
0001
0100
0001
0000
,  // measure 43
1000
0010
1000
0001
,  // measure 44
1010
0101
1001
0000
,  // measure 45
1001
0010
1001
0001
,  // measure 46
1000
0010
1000
0000
0001
0100
0001
0000
,  // measure 47
1000
1000
0001
0001
,  // measure 48
2000
3020
0230
0301
,  // measure 49
2000
0001
0010
3001
,  // measure 50
0001
0100
0001
1001
,  // measure 51
0100
0001
0100
0000
0010
1000
0010
0000
,  // measure 52
0100
0001
0010
1001
,  // measure 53
1000
0001
1000
0000
0001
0100
0001
0000
,  // measure 54
0100
0010
0100
1001
,  // measure 55
0100
0001
0100
0000
0010
1000
0010
0000
,  // measure 56
1000
0100
0010
1001
,  // measure 57
1000
0001
1000
0000
0100
1000
0100
0000
,  // measure 58
1000
0000
0000
0000
;

//---------------dance-single - ----------------
#NOTES:
     dance-single:
     :
     Easy:
     3:
     0.268,0.290,0.070,0.191,0.000: // measure 1
1000
0000
0001
0000
,  // measure 2
1000
0010
0100
0001
,  // measure 3
1000
0000
0001
0000
,  // measure 4
1000
0100
0010
0001
,  // measure 5
1000
0000
0001
0000
,  // measure 6
1000
0001
0100
0010
,  // measure 7
1000
0000
0001
0000
,  // measure 8
1000
0001
1000
0010
,  // measure 9
0100
0100
0010
0000
,  // measure 10
0100
0001
1000
0100
,  // measure 11
0010
0010
0001
0000
,  // measure 12
1000
0001
1000
0000
,  // measure 13
0001
0001
0100
0000
,  // measure 14
0010
1000
0100
0010
,  // measure 15
0001
0001
1000
0000
,  // measure 16
0010
1000
0001
0000
,  // measure 17
1000
0001
1000
0000
,  // measure 18
0010
0010
0010
0000
,  // measure 19
0100
0001
1000
0000
,  // measure 20
0100
0100
0100
0000
,  // measure 21
0010
0001
1000
0000
,  // measure 22
0001
1000
0010
0000
,  // measure 23
1000
0010
0100
0001
,  // measure 24
1000
0000
0001
0000
,  // measure 25
1000
0010
0100
0001
,  // measure 26
2000
0000
0000
3000
,  // measure 27
0001
1000
0010
0100
,  // measure 28
0002
0000
0000
0003
,  // measure 29
1000
1000
0001
0000
,  // measure 30
1000
1000
0010
0000
,  // measure 31
0100
0000
0010
0000
,  // measure 32
1001
0000
0000
0000
,  // measure 33
0010
0010
1001
0000
,  // measure 34
0001
1000
0001
0000
,  // measure 35
2000
3000
0002
0003
,  // measure 36
0200
0300
0020
0030
,  // measure 37
0100
0010
1001
0000
,  // measure 38
0010
0000
0100
0000
,  // measure 39
0020
0030
0200
0300
,  // measure 40
0002
0003
2000
3000
,  // measure 41
0100
0100
1001
0000
,  // measure 42
1000
0001
1000
0000
,  // measure 43
0002
0003
2000
3000
,  // measure 44
0020
0030
0200
0300
,  // measure 45
0010
0100
1001
0000
,  // measure 46
0100
0000
0010
0000
,  // measure 47
2000
3000
0002
0003
,  // measure 48
0200
0300
0020
0030
,  // measure 49
0101
0000
1010
0000
,  // measure 50
0010
0010
0100
0000
,  // measure 51
0010
1000
0001
0010
,  // measure 52
0100
0100
1000
0000
,  // measure 53
0001
1000
0001
0000
,  // measure 54
1000
1000
0010
0000
,  // measure 55
0100
0001
0010
0100
,  // measure 56
1000
1000
0001
0000
,  // measure 57
0100
0001
1000
0000
,  // measure 58
0002
0000
0000
1003
;
