#TITLE:Shalaka Boom;
#SUBTITLE:;
#ARTIST:Boris;
#TITLETRANSLIT:;
#SUBTITLETRANSLIT:;
#ARTISTTRANSLIT:;
#CREDIT:;
#BANNER:Shalaka Boom-bn.png;
#BACKGROUND:Shalaka Boom-bg.png;
#LYRICSPATH:;
#CDTITLE:Super Eurobeat 215.png;
#MUSIC:Shalaka Boom.mp3;
#OFFSET:-6.550;
#SAMPLESTART:50.530;
#SAMPLELENGTH:12.000;
#SELECTABLE:YES;
#BPMS:0.000=158.000,16.000=79.000,18.000=158.000;
#STOPS:;
#BGCHANGES:18.000=-random-=1.000=1=1=1,
244.000=Shalaka Boom-bg.png=1.000=1=0=1,
99999=-nosongbg-=1.000=0=0=0 // don't automatically add -songbackground-
;

//---------------dance-single - ----------------
#NOTES:
     dance-single:
     :
     Hard:
     9:
     0.656,0.597,0.667,0.301,0.117:
1001
0000
1000
0010
1000
0000
0100
0001
,
0100
0010
1000
0001
,
1000
0010
1000
0010
0100
0001
0100
0001
,
2000
3002
2003
3001
,
2002
0000
0000
0000
3003
0000
1000
0010
1010
0000
0000
0000
0100
0000
0001
0000
,
0101
0000
0000
0000
1000
0000
0010
0000
0100
0001
0100
0001
0100
0000
1000
0000
,
0010
1000
0100
0010
0110
0000
0001
1000
,
1001
0000
0000
0000
0001
0000
0010
0000
1000
0010
1000
0010
1000
0000
0100
0000
,
0001
0000
0001
0100
0101
0000
0010
1000
,
1010
0000
0000
0000
0001
0000
0100
0000
0010
1000
0010
1000
0010
0000
0001
0000
,
0100
0001
0010
0100
0110
0000
1000
0001
,
1001
0000
0000
0000
1000
0000
0100
0000
0001
0100
0001
0100
0001
0000
0010
0000
,
1000
0000
0001
0000
2001
0000
3010
0010
,
0200
0000
0301
0001
2000
0000
3001
1000
,
0010
0100
0001
1000
0002
0000
1000
0000
,
0103
1001
1100
1001
,
1010
0000
1001
0000
0011
0000
0010
0010
,
0002
0000
0103
0100
0020
0000
1030
0010
,
1000
0100
0001
0100
0020
0000
1000
0000
,
0130
1000
0101
1001
,
0011
0000
1001
0000
2000
0000
3001
0100
,
1001
0000
1000
0100
0002
0000
0100
0000
,
1000
0000
0103
0000
1001
0000
0100
0010
,
1001
0000
0100
0010
1001
0000
1001
0000
,
0110
0000
0110
0000
2001
0000
3010
0100
,
1002
0000
1003
0100
2000
0000
0001
0000
,
0010
3001
0200
0310
,
0020
0130
2002
0000
,
0000
0000
3003
0000
1001
0000
1001
0100
,
0001
0010
0100
1000
1001
0000
1001
0100
,
0010
0001
0010
0100
0110
0000
0110
1000
,
0001
0100
0010
1000
0002
0000
1003
0000
,
2000
0000
3001
0000
0101
0000
0101
0001
,
1000
0010
1000
0100
1010
0000
1010
1000
,
0100
0010
0001
0100
2001
0000
0001
0000
,
0001
0000
3001
0000
1000
0010
1000
0010
,
0100
0001
0100
0001
0110
0000
0110
1000
,
0100
0001
1000
0010
0110
0000
0110
1000
,
0001
0100
0001
1000
1001
0000
1001
0010
,
0100
1000
0001
0010
0200
0000
0310
0000
,
0020
0000
0130
0000
1100
0000
1100
0100
,
0010
0001
0010
1000
0011
0000
0011
0010
,
1000
0001
0100
1000
1002
0000
1003
0000
,
1001
0000
1000
0010
1000
0100
2000
0000
,
3002
0000
1003
0001
1001
0000
0010
0100
,
0110
0000
0000
0000
1000
0000
0001
0000
0010
0100
0010
0100
0010
0000
1000
0000
,
0001
1000
0010
0001
0011
0000
0100
1000
,
1100
0000
0000
0000
0100
0000
0001
0000
1000
0001
1000
0001
1000
0000
0010
0000
,
0100
0000
0100
0010
0110
0000
0001
1000
,
1001
0000
0000
0000
0100
0000
0010
0000
0001
1000
0001
1000
0001
0000
0100
0000
,
0010
0100
0001
0010
0011
0000
1000
0100
,
1100
0000
0000
0000
1000
0000
0010
0000
0100
0010
0100
0010
0100
0000
0001
0000
,
2000
0000
3001
0000
0110
0000
0001
1000
,
1001
0000
0000
0000
0010
0000
0100
0000
0001
1000
0001
1000
0001
0000
0010
0000
,
0100
0010
0001
0100
0101
0000
1000
0010
,
1010
0000
0000
0000
1000
0000
0100
0000
0010
0100
0010
0100
0010
0000
0001
0000
,
1000
0000
1000
0001
1001
0000
0100
0010
,
0110
0000
0000
0000
1000
0000
0001
0000
0100
0010
0100
0010
0100
0000
1000
0000
,
0001
1000
0100
0001
0101
0000
0010
1000
,
1010
0000
0000
0000
0010
0000
0001
0000
1000
0001
1000
0001
1000
0000
0100
0000
,
0010
2002
3003
0000
;

//---------------dance-single - ----------------
#NOTES:
     dance-single:
     :
     Medium:
     6:
     0.517,0.455,0.216,0.235,0.005:
1000
0000
0010
0000
1000
0000
0010
1000
,
0010
0000
0010
0000
0010
0000
1000
0001
,
1000
0000
0001
1000
0010
0000
0010
1000
,
0010
0000
0010
0100
1000
0100
0010
0001
,
2002
0000
0000
0000
3003
0000
1000
0010
1000
0000
0000
0000
0100
0000
0001
0000
,
0100
0000
1000
0010
0100
0100
0100
0000
,
0001
0001
0001
1000
0100
0000
0001
1000
,
0010
0000
0001
1000
0010
0010
0010
1000
,
1001
0000
0100
1000
0010
0000
0010
1000
,
0100
0000
0100
0010
0001
0001
0001
0000
,
1000
1000
1000
0100
0001
0000
0001
1000
,
1000
0000
0100
1000
0002
0000
2003
0000
,
3010
0000
1001
0000
0010
0000
1000
0001
,
1000
0000
0100
0010
0001
0000
0000
0001
,
1000
0010
1000
0010
2000
0000
0001
0000
,
3100
1010
0001
0100
,
1001
0000
0110
0000
0001
0000
0001
0010
,
0100
0000
0100
0010
1000
0000
0000
0001
,
1000
0001
1000
0010
0200
0000
0000
0000
,
0000
0000
0001
0000
0310
0000
0010
1000
,
0010
0000
0010
0000
1001
0000
0100
1000
,
0010
0000
0010
0100
0002
0000
0100
0000
,
0010
0000
1003
0000
0100
0000
0100
1000
,
0010
0000
0010
0100
0001
0000
0001
0000
,
0001
1000
0100
0000
1010
0000
0100
1000
,
0001
0000
0001
0010
0200
0000
0000
1000
,
0000
0000
0310
0000
1010
0000
0100
1000
,
0100
0001
2001
0000
,
0010
0000
3010
0000
1001
0000
0000
0010
,
1000
0010
1000
0010
2000
0000
3000
0001
,
0100
0001
0100
0001
0200
0000
0300
0010
,
0100
0010
0100
0010
0200
0000
0010
0000
,
0010
0000
0301
0000
0110
0000
0000
0010
,
0100
0010
0100
0010
0200
0000
0300
0001
,
0100
0001
0100
0001
2000
0000
3000
0000
,
0000
0100
1000
0100
1000
0010
1000
0000
,
1001
0000
0110
0000
1001
0000
0000
0001
,
0010
0100
0010
0100
2000
0000
3000
0010
,
1000
0010
1000
0001
0200
0000
0300
0001
,
0010
0100
0010
0100
0010
0000
0110
0000
,
1001
0000
0110
0000
1001
0000
0000
0001
,
0010
0100
1000
0010
0002
0000
0003
0001
,
1000
0100
0001
0010
0200
0000
0310
0000
,
0010
1000
0100
1000
0020
0000
1000
0000
,
1000
0000
1030
0000
0100
0000
1000
0010
,
1000
0000
0100
0001
1000
1000
1000
0000
,
0010
0010
0010
0100
1000
0000
0010
0100
,
0001
0000
0010
0100
0001
0001
0001
0100
,
0110
0000
1000
0100
0001
0000
0001
0100
,
1000
0000
1000
0001
0010
0010
0010
0000
,
0100
0100
0100
1000
0010
0000
0010
0100
,
0100
0000
1000
0100
0020
0000
0230
0000
,
0301
0000
0110
0000
1000
0000
0100
0001
,
0100
0000
1000
0010
0100
0100
0100
0000
,
0001
0001
0001
1000
0100
0000
0001
1000
,
0010
0000
0001
1000
0010
0010
0010
1000
,
1001
0000
0100
1000
0010
0000
0010
1000
,
0100
0000
0100
0010
0001
0001
0001
0000
,
1000
1000
1000
0100
0001
0000
0001
1000
,
1000
0000
0100
1000
0002
0000
2003
0000
,
3010
2002
3003
0000
;

//---------------dance-single - ----------------
#NOTES:
     dance-single:
     :
     Easy:
     4:
     0.356,0.341,0.423,0.113,0.000:
1000
0000
1000
1000
,
2000
0000
3010
0010
,
0020
0000
0000
0030
,
0100
0001
0010
0001
,
1001
0000
0000
0001
1001
0000
1000
0000
,
1001
0010
1000
0010
,
1000
0100
1100
0100
,
1100
0001
0100
0010
,
1000
0001
0011
0001
,
0011
0001
0010
0001
,
0010
0010
1010
0010
,
1010
0100
0010
1000
,
0010
0100
1000
0010
,
1000
0001
2000
0000
,
0010
3010
0010
0000
,
0000
1001
0010
0100
,
0010
0100
1001
0001
,
0101
0001
1100
0000
,
0010
1000
2020
0000
,
3030
0100
1000
0010
,
1000
0010
1001
0100
,
1000
0010
0002
0000
,
1000
1003
0010
1000
,
0100
1000
0010
0001
,
0010
0001
1001
0010
,
0100
1000
2000
0000
,
0010
3010
0001
0000
,
1000
0000
2002
0000
,
0000
3003
1001
0000
,
0010
0010
1001
0000
,
0100
0100
1001
0000
,
0010
0100
1001
0010
,
0010
0010
1001
0000
,
0001
0010
0011
0000
,
0010
1000
1010
0000
,
0000
0100
1000
0001
,
0010
0100
1001
0000
,
0001
0100
0101
0000
,
0100
1000
1100
0000
,
0001
1000
0010
0010
,
0100
0100
0110
0000
,
0001
0010
0110
0000
,
1000
0010
0110
0000
,
0000
0001
2000
0000
,
0000
0001
3010
0100
,
0110
0001
0100
0001
,
0100
1000
1100
1000
,
1100
0010
1000
0001
,
0100
0010
0011
0010
,
0011
0010
0001
0010
,
0001
0001
0101
0001
,
0101
1000
0001
0100
,
0001
1000
0010
0100
,
0110
0001
0100
0001
,
0100
1000
1100
1000
,
1100
0010
1000
0001
,
0100
0010
0011
0010
,
0011
0010
0001
0010
,
0001
0001
0101
0001
,
0101
1000
0001
0100
,
0001
2002
3003
0000
;
