#TITLE:Sexual Healing;
#SUBTITLE:(Planet Lution Mix);
#ARTIST:E-Rotic;
#TITLETRANSLIT:;
#SUBTITLETRANSLIT:;
#ARTISTTRANSLIT:;
#CREDIT:;
#BANNER:Sexual Healing (Planet Lution Mix)-bn.png;
#BACKGROUND:Sexual Healing (Planet Lution Mix)-bg.png;
#LYRICSPATH:Sexual Healing (Planet Lution Mix).lrc;
#CDTITLE:Dance Mania Speed 7.png;
#MUSIC:Sexual Healing (Planet Lution Mix).mp3;
#OFFSET:-5.730;
#SAMPLESTART:39.948;
#SAMPLELENGTH:12.000;
#SELECTABLE:YES;
#BPMS:0.000=170.050;
#STOPS:;
#BGCHANGES:;

//---------------dance-single - ----------------
#NOTES:
     dance-single:
     :
     Hard:
     9:
     0.664,0.585,0.302,0.320,0.058:
0020
0100
1000
0130
,
0200
0001
0010
0301
,
0020
2030
3002
0013
,
1001
0110
1001
0110
,
1001
0010
0001
1000
0001
1000
0001
1000
,
0000
0010
1000
0000
1001
0000
1000
0010
,
0000
0010
1000
0100
0010
0001
0010
0100
,
0000
0000
1000
0000
0001
0000
0000
0000
0100
0001
0000
0100
0001
0000
1000
0001
,
1000
0001
0100
0001
0010
0100
1000
0100
,
0000
1000
0010
0000
1001
0000
0001
1000
,
0000
1000
0100
0000
1001
0000
0001
1000
,
0000
0010
1000
0000
0001
0100
0001
0010
,
0001
1002
0103
2001
,
3100
0201
0310
0102
,
1003
1200
1300
2010
,
3010
0000
0000
0000
0110
0000
0000
0000
0100
0001
0100
0000
0010
0000
0000
0000
,
1000
0000
0010
0000
1000
0000
0010
1000
,
0010
1000
0000
0010
0000
0100
0001
0010
,
0000
0011
0000
1100
0000
0100
1000
0001
,
1000
0001
0010
0001
0010
0100
1000
0010
,
2000
0000
3020
0000
0230
0000
0301
0100
,
0002
0000
0023
0000
0230
0000
1300
0001
,
2000
0000
3002
0000
2003
0000
3010
0100
,
0010
0000
0100
0010
1000
0000
0001
0000
,
2000
0001
0001
0100
,
3001
0000
1010
0000
0101
0000
0010
0100
,
0000
0001
0100
0001
0100
0001
0010
0100
,
1000
0001
0010
0001
1000
0010
1000
0001
,
0100
0010
0100
0001
1000
0010
1000
0100
,
1000
0000
0110
0000
1001
0000
0001
0010
,
0000
0100
0010
0001
0010
0100
1000
0001
,
1000
0010
0100
0001
0010
0001
0010
0100
,
1000
0001
1000
0010
1000
0010
1000
0010
,
1000
0000
0001
1000
0001
1000
0010
0100
,
0000
0001
0100
0001
0100
0010
0100
0001
,
0000
0001
0010
0100
0010
0001
0010
0100
,
0000
0010
0001
0010
0100
1000
0010
1000
,
0010
0000
1000
0010
1000
0010
0100
0001
,
0000
0001
1000
0000
1001
0000
0010
0001
,
0000
0000
1000
0000
0010
0000
1000
0100
,
0000
1000
0010
0000
1000
0010
0100
0001
,
2002
0000
0000
0000
3003
0001
0000
2200
,
0000
0000
0000
3300
,
2002
0000
0000
0000
3003
0100
0100
0011
,
0000
0000
1100
0000
0000
1000
0001
0000
,
0000
2001
0100
0100
,
3010
1002
0010
0013
,
0101
1010
0110
0011
,
1001
0000
0001
1000
0010
0100
0010
1000
,
0000
0001
1000
0001
1000
0010
0100
0001
,
0100
0001
0010
0100
0010
0001
0010
0100
,
0010
0001
0010
0100
1000
0010
1000
0010
,
1000
0000
0100
0000
1000
0000
0010
0000
1000
0010
0000
1000
0010
0000
0001
1000
,
0001
0000
0001
1000
0001
0010
0100
0010
,
0001
0010
0001
0010
0100
0010
0001
0010
,
0100
0010
0001
1000
0010
1000
0001
1000
,
0010
0000
1000
0000
0001
0000
1000
0000
0010
1000
0000
0010
1000
0000
1000
0001
,
1000
0000
0010
1000
0100
0010
0001
1000
,
0100
1000
0001
0100
0010
0100
0001
0010
,
0100
1000
0001
1000
0010
1000
0001
0010
,
0001
1000
0010
1000
0100
1000
0010
1000
,
0001
0000
0001
0010
0100
0010
0001
1000
,
0010
1000
0100
1000
0010
0100
0001
0100
,
0010
0100
0001
0010
0100
1000
0001
0010
,
0001
0100
0010
0100
0001
0100
0010
1000
,
0100
0000
1000
0010
0100
0001
0010
0002
,
0000
0013
0100
0010
0001
1000
0010
2000
,
0000
3010
1000
0010
0100
0001
0100
0020
,
0000
0000
0130
0000
0001
0000
0000
0000
1000
0010
0000
1000
0010
0000
1000
0010
,
1000
1000
0100
1000
0010
1000
0001
0020
,
0000
0031
0010
0100
0010
0001
1000
0020
,
0000
1030
0010
1000
0001
0100
0010
2000
,
0000
3001
0010
0000
0001
0100
0010
2000
,
0000
3000
0000
0000
0000
0000
0000
0000
;

//---------------dance-single - ----------------
#NOTES:
     dance-single:
     :
     Medium:
     6:
     0.481,0.455,0.098,0.364,0.000:
0002
0000
1000
0000
1000
0000
1000
0003
,
2000
0000
0001
0000
0001
0000
0001
3000
,
0020
0100
0100
0130
,
0010
0010
0110
0110
,
0110
0001
1000
0001
,
1000
0000
0010
0000
0010
0000
1000
0010
,
0000
0000
0100
0000
0100
0000
0001
0100
,
0000
0000
0010
0000
1000
0010
1000
0010
,
0000
0000
1000
0000
0001
0000
0010
0001
,
0000
0000
0010
0000
0001
0000
0100
0010
,
0000
0000
1000
0000
0100
0000
1000
0010
,
0000
0000
1000
0000
0001
1000
0010
1000
,
0000
1000
0010
0100
,
1010
0001
0010
0001
,
0011
0100
0010
0100
,
0110
0000
1001
0000
0001
0001
0001
0000
,
2000
0000
3010
0000
0010
1000
0100
0000
,
1000
0010
1000
0001
0000
0001
0000
1000
,
0000
0001
0000
0001
0000
1000
0010
0000
,
0010
1000
0000
0100
0000
0100
1000
0010
,
2000
0000
0001
0000
3010
0000
0001
0100
,
0002
0000
0010
0000
0103
0000
1000
0001
,
0020
0000
0001
0000
0130
0000
1000
0001
,
1000
0000
0001
1000
0010
0000
1000
0000
,
0220
0000
0000
0330
,
1001
0000
0010
0000
1000
0000
0100
2000
,
0000
0000
3001
0000
1000
0000
0010
2000
,
0000
0000
3010
0000
0100
0000
0010
0200
,
0000
0301
1000
0001
1000
0100
0010
0001
,
0000
0000
1000
0000
0010
0000
1000
0200
,
0000
0000
1300
0000
0001
0000
1000
0002
,
0000
0000
0013
0000
0100
0000
1000
0002
,
0000
1003
0001
1000
0001
1000
0010
1000
,
0010
0000
1000
0000
0100
0000
1000
0001
,
0000
0000
1000
0100
1000
0001
1000
0001
,
0000
0000
1000
0000
0100
0000
1000
0001
,
0000
0000
1000
0000
0010
0100
0010
0100
,
0000
0000
0001
0000
0001
0000
1000
0010
,
0000
0000
1000
0000
0001
0000
0100
0002
,
0000
0000
1003
0000
1000
0000
0010
1000
,
0000
0100
1000
0001
1000
0001
1000
0001
,
0000
0000
0000
0000
0000
0100
0000
0220
,
0000
0000
0000
0330
,
0001
0000
0000
0000
0000
1000
0100
2000
,
0000
0000
0000
0000
0000
3002
0000
0000
,
0000
0000
2003
0000
0000
3000
0200
0000
,
0000
0300
2000
0000
0000
0000
3002
0000
,
1003
0100
1000
0010
,
1010
0000
1000
0100
1000
0001
1000
0001
,
1000
0000
0001
0000
1000
0000
0100
2000
,
0000
0000
3001
0000
1000
0000
0100
2000
,
0000
0000
3001
0000
0001
0000
1000
0200
,
0000
1300
0001
1000
0001
1000
0001
1000
,
0000
0000
0010
0000
0010
0000
0100
0002
,
0000
0000
1003
0000
0100
0000
1000
0002
,
0000
0000
0013
0000
0010
0000
0100
0002
,
0000
1003
0001
1000
0001
0100
0001
0100
,
0001
0000
0020
0000
0032
0000
1003
0020
,
0000
0000
0130
0000
0010
0000
0100
0002
,
0000
0000
1003
0000
0010
0000
0100
0002
,
0000
0013
0001
0010
0100
1000
0001
1000
,
0000
0000
0020
0000
0130
0000
0001
2000
,
0000
3000
0010
0000
0100
0000
0001
0020
,
0000
0030
0002
0000
0013
0000
0100
2000
,
0000
3010
1000
0001
1000
0010
0100
0010
,
1000
0000
0001
1000
0001
0000
1000
0010
,
0000
0000
1000
0010
1000
0000
0010
0100
,
0000
0000
0001
0100
0001
0000
0010
0100
,
0000
0000
0010
0000
0100
0010
0100
0010
,
0000
0000
0001
1000
0001
0000
1000
0010
,
0000
0000
0100
0000
0010
0000
1000
0001
,
0000
0000
0001
0000
0010
0000
0100
0010
,
0000
0001
0010
0000
0100
0010
0001
2000
,
0000
3000
0000
0000
0000
0000
0000
0000
;

//---------------dance-single - ----------------
#NOTES:
     dance-single:
     :
     Easy:
     4:
     0.354,0.325,0.249,0.231,0.000: // measure 1
1000
1000
1000
0000
,  // measure 2
0001
0001
0001
0000
,  // measure 3
1000
0010
0100
0000
,  // measure 4
0010
0010
0110
0110
,  // measure 5
0001
1000
0010
1000
,  // measure 6
0100
0000
1000
0010
,  // measure 7
0100
0000
0001
0010
,  // measure 8
0100
0000
1000
0001
,  // measure 9
2000
0000
3010
0100
,  // measure 10
0002
0000
0013
0100
,  // measure 11
2000
0000
3010
0100
,  // measure 12
0020
0000
1030
0001
,  // measure 13
0010
0000
0010
0010
,  // measure 14
0110
0000
0001
0001
,  // measure 15
1001
0000
1000
0010
,  // measure 16
1010
0000
1010
0000
,  // measure 17
1001
0000
0001
0000
,  // measure 18
1000
1000
0010
0100
,  // measure 19
0002
0000
2003
0000
,  // measure 20
3020
0000
0130
0000
,  // measure 21
1001
0000
0000
0010
,  // measure 22
0010
0000
0000
0100
,  // measure 23
1001
0000
0000
0010
,  // measure 24
0100
0001
1000
0010
,  // measure 25
2002
0000
0000
3003
,  // measure 26
1001
0001
1000
0010
,  // measure 27
1000
0100
0010
0001
,  // measure 28
1000
0001
1000
0001
,  // measure 29
0010
0100
1000
0010
,  // measure 30
0100
0010
1000
0100
,  // measure 31
0010
0001
1000
0001
,  // measure 32
0010
0100
1000
0010
,  // measure 33
0100
0010
0010
0100
,  // measure 34
0100
0010
0100
0010
,  // measure 35
0100
0000
0001
1000
,  // measure 36
0001
0000
1000
0010
,  // measure 37
0100
0000
0001
0010
,  // measure 38
0100
0000
1000
0010
,  // measure 39
0110
0000
0001
0010
,  // measure 40
0110
0000
0100
1000
,  // measure 41
1010
0000
1001
0000
,  // measure 42
2002
0000
0000
0000
3003
0100
0000
0020
,  // measure 43
0000
0000
0000
0000
0000
0030
0000
0000
,  // measure 44
0110
0000
0000
0000
0000
0000
0001
1000
,  // measure 45
0000
0000
0000
0000
0000
0110
0000
0000
,  // measure 46
0000
2000
0000
3002
,  // measure 47
0000
2003
0000
3010
,  // measure 48
0010
0100
0100
0100
,  // measure 49
0010
0100
0010
0010
,  // measure 50
1001
0001
0010
0100
,  // measure 51
1000
1000
0010
0100
,  // measure 52
0001
0001
0010
0100
,  // measure 53
0010
0001
0100
0010
,  // measure 54
1000
1000
0010
1000
,  // measure 55
0100
0100
0010
0001
,  // measure 56
1000
1000
0010
0100
,  // measure 57
0001
0001
0010
0100
,  // measure 58
1001
0000
0001
0001
,  // measure 59
0002
0003
1000
1000
,  // measure 60
1001
0000
0010
0010
,  // measure 61
0020
0030
0100
0100
,  // measure 62
0110
0000
0001
1000
,  // measure 63
1001
0000
0001
0010
,  // measure 64
0110
0000
1000
0010
,  // measure 65
1010
0000
1010
0000
,  // measure 66
1001
0000
0001
0001
,  // measure 67
0002
0000
1003
0010
,  // measure 68
0200
0000
0301
0010
,  // measure 69
0200
0000
1300
0010
,  // measure 70
0200
0000
0301
0010
,  // measure 71
0200
0000
1300
0010
,  // measure 72
2000
0000
3010
0100
,  // measure 73
0002
0000
1003
0010
,  // measure 74
2002
3003
0000
0000
;

//---------------dance-single - ----------------
#NOTES:
     dance-single:
     :
     Beginner:
     2:
     0.222,0.228,0.018,0.187,0.000: // measure 1
0100
0000
0001
0000
,  // measure 2
1000
0000
0010
0000
,  // measure 3
0100
0000
0010
0000
,  // measure 4
0100
0100
0010
0010
,  // measure 5
0100
0000
0010
0000
,  // measure 6
1000
0000
0001
0000
,  // measure 7
0010
0000
0100
0000
,  // measure 8
1000
0000
0001
0001
,  // measure 9
0010
0000
0100
0000
,  // measure 10
1000
0000
0010
0000
,  // measure 11
0100
0000
0001
0000
,  // measure 12
0010
0000
0100
0100
,  // measure 13
2000
0000
0000
0000
,  // measure 14
3002
0000
0000
0000
,  // measure 15
0203
0000
0000
0300
,  // measure 16
0020
0000
0130
0100
,  // measure 17
0100
0000
0010
0000
,  // measure 18
0010
0000
0010
0000
,  // measure 19
0020
0000
0000
0030
,  // measure 20
0100
0100
0010
0000
,  // measure 21
1000
0000
0001
0000
,  // measure 22
1000
0000
0010
0000
,  // measure 23
0100
0000
0001
0000
,  // measure 24
1000
0000
0010
0000
,  // measure 25
2002
0000
0000
3003
,  // measure 26
1000
0000
0010
0000
,  // measure 27
0100
0000
0001
0000
,  // measure 28
1000
0000
0010
0000
,  // measure 29
0100
0000
0001
0001
,  // measure 30
0100
0000
0010
0000
,  // measure 31
1000
0000
0100
0000
,  // measure 32
0010
0000
0001
0000
,  // measure 33
0100
0000
0010
1000
,  // measure 34
0020
0000
0000
0030
,  // measure 35
2000
0000
0000
3000
,  // measure 36
0002
0000
0000
0003
,  // measure 37
0200
0000
0000
0300
,  // measure 38
0010
0000
0100
0000
,  // measure 39
0001
0000
1000
0000
,  // measure 40
0010
0000
1000
0000
,  // measure 41
0001
0000
0010
0010
,  // measure 42
0100
0000
0000
0000
0000
1000
0000
0001
,  // measure 43
0000
0000
0000
0000
,  // measure 44
0010
0000
0000
0000
0000
0100
0000
0001
,  // measure 45
0000
0000
0000
0000
0000
1000
0000
0000
,  // measure 46
0000
0010
0000
0010
,  // measure 47
0000
0100
0000
0001
,  // measure 48
1000
0010
1000
0010
,  // measure 49
2000
0000
0000
0000
,  // measure 50
3001
0000
0010
0010
,  // measure 51
0001
0000
0100
0100
,  // measure 52
0010
0000
0010
0010
,  // measure 53
0100
0000
0001
0010
,  // measure 54
0100
0000
1000
0010
,  // measure 55
0100
0000
0001
0100
,  // measure 56
0010
0000
1000
0001
,  // measure 57
0100
0000
0010
0010
,  // measure 58
0100
0000
0001
0000
,  // measure 59
1000
0000
0100
0000
,  // measure 60
0010
0000
0001
0000
,  // measure 61
0100
0000
0010
0010
,  // measure 62
1000
0000
0100
0000
,  // measure 63
0010
0000
0001
0000
,  // measure 64
0100
0000
0010
0000
,  // measure 65
0100
0000
0010
0010
,  // measure 66
0020
0000
0000
0000
,  // measure 67
2030
0000
0000
0000
,  // measure 68
3002
0000
0000
0000
,  // measure 69
0203
0000
0010
0010
,  // measure 70
0320
0000
0000
0000
,  // measure 71
2030
0000
0000
0000
,  // measure 72
3002
0000
0000
0003
,  // measure 73
0010
0000
0001
0000
,  // measure 74
2002
3003
0000
0000
;
