#TITLE:Self Control;
#SUBTITLE:;
#ARTIST:Laura Branigan;
#TITLETRANSLIT:;
#SUBTITLETRANSLIT:;
#ARTISTTRANSLIT:;
#CREDIT:JPatterson;
#BANNER:Self control-bn.png;
#BACKGROUND:Self control-bg.png;
#LYRICSPATH:;
#CDTITLE:cd.png;
#MUSIC:Self Control.mp3;
#OFFSET:-8.580;
#SAMPLESTART:86.990;
#SAMPLELENGTH:12.000;
#SELECTABLE:YES;
#BPMS:0.000=110.140;
#STOPS:;
#BGCHANGES:;

//---------------dance-single - ----------------
#NOTES:
     dance-single:
     :
     Hard:
     7:
     0.443,0.397,0.128,0.360,0.216:
2001
0000
3010
1000
0000
0010
0100
0000
,
1020
0000
0000
0000
0130
0000
0001
0000
0000
0000
1000
0010
1000
0000
0000
0000
,
0210
0000
0310
0100
0000
0100
0001
0000
,
2001
0000
3001
1000
0000
0010
0010
1000
,
0020
0000
1000
0000
0130
0000
0001
0010
,
0200
0000
1000
0000
0310
0001
0010
0001
,
2000
0000
0010
0000
3010
1000
0010
1000
,
0002
0000
0010
0000
1003
0001
0010
0100
,
0020
0000
0031
0000
0100
0010
1000
0001
,
2000
0000
3001
0000
0100
0010
1000
0001
,
0020
0000
0130
0000
0010
0001
0010
0100
,
1000
0010
1000
0000
0010
1000
0001
0010
,
0002
0000
1000
0000
0103
0010
1000
0010
,
0200
0000
0320
0000
1030
0100
0010
0001
,
0200
0000
0320
0000
1030
0001
0010
0001
,
0200
0000
0310
1000
0010
1000
0010
1000
,
0002
0000
0013
0000
0001
1000
0010
0100
,
0002
0000
0103
0000
1000
0001
1000
0010
,
0200
0000
0310
0000
0100
0001
0010
0100
,
2000
3100
1010
0101
,
1000
0000
0010
1000
0000
0010
1000
0000
0000
0000
0010
0100
0000
0010
0000
0000
,
0100
0000
0000
0100
0000
0000
0200
0000
0000
0000
0000
0000
0301
0000
0000
0000
,
1000
0000
0001
0100
0000
0001
0100
0000
0000
0000
0010
0100
0000
0010
0000
0000
,
1000
0000
0000
1000
0000
0000
2000
0000
0000
0000
0000
0000
3010
0000
0000
0000
,
0100
0000
0001
0010
0000
0001
0010
0000
0000
0000
0001
1000
0000
1000
0000
0000
,
0010
0000
0000
0010
0000
0000
0020
0000
0000
0000
0000
0000
1030
0000
0000
0000
,
0010
0000
0100
0001
0000
0100
0001
0000
0000
0000
1000
0001
0000
0001
0000
0000
,
0100
0000
0000
0100
0000
0000
0200
0000
0000
0000
0010
0000
0310
0000
0010
0000
,
1000
0000
0010
0100
0000
0010
0200
0000
0000
0000
0301
1000
0000
0010
0000
0000
,
0201
0000
0000
0001
0000
0000
0301
0000
0000
0000
0100
0000
1000
0000
0100
0000
,
0010
0000
1000
0001
0000
1000
0002
0000
0000
0000
1003
0010
0000
1000
0000
0000
,
1002
0000
0000
1000
0000
0000
1003
0000
0000
0000
0010
0000
0010
0000
0010
0000
,
0100
0000
0010
0100
0000
0010
0200
0000
0000
0000
0310
1000
0000
0001
0000
0000
,
0201
0000
0000
0001
0000
0000
0301
0000
0000
0000
1000
0000
1000
0000
1000
0000
,
0010
0000
0100
0001
0000
1000
0002
0000
0000
0000
0103
0010
0000
1000
0000
0000
,
2010
0000
0000
0010
0000
0000
3010
0000
0000
0000
0100
0000
0100
0000
0100
0000
,
2002
0000
0000
0000
3003
0000
0000
0010
,
0010
0000
0100
0000
0010
0000
1000
0001
0000
0000
0100
0000
0010
0000
1000
0002
,
0000
1003
0010
1001
,
0001
0000
0010
0000
0100
0000
0010
0001
0000
0000
0010
0000
0100
0000
1000
0000
,
1020
0000
0100
0000
1000
0000
1030
0010
,
0100
0000
0001
0000
0010
0000
0100
1000
0000
0000
0100
0000
0010
0001
0000
0000
,
0010
0000
0100
0000
1000
0000
0001
0010
0000
0000
0001
0000
0100
0000
0010
1000
,
0000
0000
0010
0000
1000
0010
1000
0000
0000
0000
0010
0000
0100
0000
0000
0000
,
2002
0000
0003
0000
3100
0000
0100
0010
,
0100
0000
0010
0000
0001
0000
1000
0001
0000
0000
0010
0000
0001
0000
1000
0020
,
0000
0000
1030
0000
0100
0000
0010
0001
,
1000
0010
0010
1000
0100
0100
1000
0010
,
2001
0000
3002
0000
2003
0000
3010
0100
,
0001
0000
0010
0000
0100
0000
1000
0000
0010
0000
1000
0000
0010
1000
0000
0000
,
0010
0000
1000
0000
0100
0000
0010
0001
0000
0000
1000
0000
0010
0000
1000
0000
,
0010
0000
0100
0000
0001
1000
0001
0000
0000
0000
0100
0000
0010
0000
0000
0000
,
2002
3003
0000
0000
;

//---------------dance-single - ----------------
#NOTES:
     dance-single:
     :
     Beginner:
     1:
     0.143,0.187,0.056,0.120,0.000:
0010
0000
0000
0000
,
1000
0000
0000
0000
,
0001
0000
0000
0000
,
0100
0000
0000
0000
,
1001
0000
0000
0000
,
0020
0000
0030
0000
,
1001
0000
0000
0000
,
0200
0000
0300
0000
,
0001
0000
0000
0000
,
1000
0000
0000
0000
,
0010
0000
0000
0000
,
0100
0000
0100
0000
,
1001
0000
0000
0000
,
0002
0000
0003
0000
,
2000
0000
3000
0000
,
0020
0000
0030
0000
,
0110
0000
0000
0000
,
0200
0000
0300
0000
,
0002
0000
0003
0000
,
0010
0000
0001
0000
,
1000
0000
1000
0000
,
1000
1000
1000
0000
,
0001
0000
0001
0000
,
0001
0001
0001
0000
,
0010
0000
0100
0000
,
1000
0001
1000
0000
,
0010
0000
0001
0000
,
1000
0001
0100
0000
,
0001
0000
1000
0000
,
0010
0010
0020
0030
,
0100
0000
1000
0000
,
0001
0010
0200
0300
,
1000
0000
0001
0000
,
1000
0010
0200
0300
,
0001
0000
1000
0000
,
0010
0100
0020
0030
,
2002
0000
3003
0000
,
0001
0001
0001
0001
,
0001
0000
0000
0000
,
1000
0010
0100
0001
,
1000
0000
0000
0000
,
1000
1000
0001
0000
,
0001
0001
0010
0000
,
0100
0100
1000
0000
,
0220
0000
0330
0000
,
0001
0001
1000
0001
,
1000
0000
0000
0000
,
0010
0010
1000
0100
,
0010
0000
0000
0000
,
0001
0001
0010
0000
,
0100
0100
1000
0000
,
0010
0100
0010
0000
,
1001
0000
0000
0000
;

//---------------dance-single - ----------------
#NOTES:
     dance-single:
     :
     Easy:
     3:
     0.224,0.208,0.104,0.136,0.000:
1000
0001
1000
0000
,
0001
0010
0100
0000
,
1000
0001
0010
0000
,
0010
0001
1000
0010
,
1001
0000
0000
0001
,
0001
0000
0000
1000
,
1000
0000
0000
0010
,
0010
0000
0000
0100
,
0110
0000
0000
0001
,
1001
0000
0000
1000
,
1100
0000
0000
0010
,
0110
0000
0010
0010
,
2000
0000
3001
0001
,
2000
0000
3001
0010
,
0200
0000
1300
0010
,
0200
0000
0301
0010
,
0200
0000
0310
0001
,
0020
0000
0031
0010
,
0200
0000
1300
0010
,
0200
0000
0301
0001
,
1000
0010
1000
0010
,
0100
0001
0002
0000
,
1003
0001
0010
0100
,
1000
0010
0020
0000
,
1030
0010
0100
0001
,
0010
0001
0100
0010
,
1000
0010
0100
0001
,
0010
0100
0200
0000
,
1300
0010
0100
0001
,
0010
0001
0011
0000
,
0100
1000
0010
1000
,
0100
0010
0110
0000
,
0100
0010
0001
1000
,
0010
1000
1010
0000
,
0010
0100
0001
1000
,
0001
1000
1001
0000
,
2002
0000
3003
0000
,
0001
0001
1000
0010
,
0110
0000
0010
0010
,
1000
0001
0010
0100
,
2000
3000
0001
0001
,
1000
0001
0100
0010
,
1000
0010
0100
0001
,
0010
0100
1000
0010
,
2002
3003
0000
0000
,
0001
0001
1000
0010
,
0100
0000
0010
0100
,
1000
0100
0010
0100
,
0002
0000
1003
0001
,
0010
0100
1000
0100
,
0010
0100
0001
0100
,
0010
0100
1000
0010
,
1001
0000
0000
0000
;

//---------------dance-single - ----------------
#NOTES:
     dance-single:
     :
     Medium:
     5:
     0.249,0.229,0.032,0.112,0.000: // measure 1
1000
0001
1000
0000
,  // measure 2
0010
0100
0010
0000
,  // measure 3
1000
0001
0010
0000
,  // measure 4
0001
0000
0100
0000
0000
1000
0010
1000
,  // measure 5
0000
0000
0000
0000
0000
0100
0010
0200
,  // measure 6
0000
0000
0300
0000
0000
0001
1000
0002
,  // measure 7
0000
0000
0003
0000
0000
0001
1000
0020
,  // measure 8
0000
0000
0000
0000
0030
0100
0001
2000
,  // measure 9
0000
0000
0000
3000
0000
0001
0010
0100
,  // measure 10
1000
0000
0000
0000
0000
0001
1000
0020
,  // measure 11
0000
0000
0000
0000
0030
0100
0010
1000
,  // measure 12
0001
0000
1000
0000
0001
1000
0010
0200
,  // measure 13
0000
0300
0001
0000
0001
1000
0001
0020
,  // measure 14
0000
0000
0130
0000
0100
1000
0010
0200
,  // measure 15
0000
0000
0301
0000
0001
1000
0010
1000
,  // measure 16
0010
0000
0100
0000
0001
1000
0001
0010
,  // measure 17
0000
0000
0000
0000
0000
0001
1000
0010
,  // measure 18
0010
0000
1000
0000
0001
1000
0001
0100
,  // measure 19
0000
0000
0010
0000
0010
1000
0001
1000
,  // measure 20
0000
0010
0010
0100
,  // measure 21
0001
1000
0001
1000
,  // measure 22
0010
0010
0010
0000
,  // measure 23
1000
0001
0010
0100
,  // measure 24
1000
0001
0001
0000
,  // measure 25
1000
0010
0100
0001
,  // measure 26
0010
0100
0100
0000
,  // measure 27
1000
0001
0010
0001
,  // measure 28
1000
0100
0100
0000
,  // measure 29
1010
0001
0100
0010
,  // measure 30
1000
1000
1000
0000
,  // measure 31
0001
0010
0001
0100
,  // measure 32
0010
0010
0010
0000
,  // measure 33
1000
0001
1000
0001
,  // measure 34
0010
0010
0010
0000
,  // measure 35
0001
1000
0010
0100
,  // measure 36
0010
1000
0100
1000
,  // measure 37
2002
0000
3003
0000
,  // measure 38
0001
0000
0001
0000
1000
0000
0010
1000
,  // measure 39
0020
0000
1030
1000
,  // measure 40
0010
0000
0100
0000
0001
0000
0010
0100
,  // measure 41
2000
0000
3001
0001
,  // measure 42
1000
0000
0001
0000
0010
0000
0100
0100
,  // measure 43
1000
0000
0001
0000
0010
0000
0001
0001
,  // measure 44
1000
0010
1000
0010
,  // measure 45
2002
0000
3003
0000
,  // measure 46
0001
0000
1000
0000
0010
0000
0100
0100
,  // measure 47
0100
0000
0001
1000
,  // measure 48
0001
0000
0010
0000
0100
0000
1000
1000
,  // measure 49
1000
0000
0010
0100
,  // measure 50
0001
0000
1000
0000
0001
1000
0001
0000
,  // measure 51
0010
0000
0100
0000
0010
0100
0010
0000
,  // measure 52
0001
1000
0010
0100
,  // measure 53
1001
0000
0000
0000
;
