#TITLE:Secret Agent;
#SUBTITLE:(007 Radio Mix);
#ARTIST:Captain Jack;
#TITLETRANSLIT:;
#SUBTITLETRANSLIT:;
#ARTISTTRANSLIT:;
#CREDIT:;
#BANNER:Secret Agent (007 Radio Mix)-bn.PNG;
#BACKGROUND:Secret Agent (007 Radio Mix)-bg.PNG;
#LYRICSPATH:;
#CDTITLE:cd.png;
#MUSIC:Secret Agent (007 Radio Mix).ogg;
#OFFSET:-6.837;
#SAMPLESTART:64.190;
#SAMPLELENGTH:12.000;
#SELECTABLE:YES;
#BPMS:0.000=37.500,4.000=75.000,20.000=150.010,188.000=75.000,190.000=150.010,202.000=37.500,204.000=150.000;
#STOPS:;
#BGCHANGES:;

//---------------dance-single - ----------------
#NOTES:
     dance-single:
     :
     Hard:
     7:
     0.480,0.433,0.208,0.113,0.057: // measure 1
0001
0000
0001
0000
1000
0000
1000
0000
0100
0000
0010
0000
1001
0000
0000
0010
,  // measure 2
0100
0001
0000
0001
1000
0010
0100
0001
,  // measure 3
1000
0000
1000
0000
0001
0001
1000
0010
,  // measure 4
1000
0100
0000
0100
1000
0010
1000
0001
,  // measure 5
1000
0000
0001
0000
1000
1000
1000
1000
,  // measure 6
0001
0000
0001
0000
0001
0000
1000
0000
0001
0000
1000
0100
0000
0000
0000
0000
,  // measure 7
0010
1000
0001
0010
1000
0001
0100
0000
,  // measure 8
1000
0000
0001
0000
0010
0000
0100
0000
0001
0000
0100
1000
0000
0000
0000
0000
,  // measure 9
0001
0100
1000
0000
0001
0010
0100
0000
,  // measure 10
0001
0000
0100
0000
0010
0000
1000
0000
0100
0000
1000
0001
0000
0000
0000
0000
,  // measure 11
0010
0100
0001
1000
0010
0100
1000
0000
,  // measure 12
0001
0000
0010
0000
0100
0000
0001
0000
0100
0000
1000
0010
0000
0000
0000
0000
,  // measure 13
0010
1000
0001
0100
,  // measure 14
0001
0001
1000
1000
0001
0010
0100
0000
,  // measure 15
1002
0103
2001
3100
,  // measure 16
0001
0010
0100
0001
0100
1000
0001
0000
,  // measure 17
2001
0000
3010
0100
0001
0000
1001
0000
,  // measure 18
0100
1000
0001
0010
0100
0001
0100
0000
,  // measure 19
1001
0000
0000
0010
0000
0000
0000
0000
1001
0000
0000
0100
0000
0000
0000
0000
,  // measure 20
0001
0010
1000
0100
1000
0001
0100
0000
,  // measure 21
0201
0000
0301
0010
0100
0000
1001
0000
,  // measure 22
0100
0100
1000
0001
0010
0100
0001
0000
,  // measure 23
1000
1000
2000
0000
3001
0001
0002
0000
,  // measure 24
0013
0100
1000
0001
0010
0100
0010
0000
,  // measure 25
0120
0000
1030
0001
0001
0000
1000
0000
,  // measure 26
0001
0100
1000
0001
0100
1000
0001
0000
,  // measure 27
0020
2030
3200
0310
,  // measure 28
1001
0001
0010
0100
0001
0100
1100
0000
,  // measure 29
1001
0000
0001
0001
0001
0000
0010
1000
,  // measure 30
1001
0000
0100
1000
1001
0000
0100
1000
,  // measure 31
0001
0010
0100
0001
0100
1000
0001
0010
,  // measure 32
0100
0000
0001
0100
1000
0001
0010
0000
,  // measure 33
0100
0001
0100
1000
0001
0010
0100
0010
,  // measure 34
0010
1001
0100
1001
,  // measure 35
0100
1000
0001
0010
0100
0001
0100
1000
,  // measure 36
0001
0000
0010
0000
1010
0000
0100
1000
,  // measure 37
0100
0000
0001
0010
0100
0001
0100
1000
,  // measure 38
0100
0000
0101
0000
0010
0100
0001
0100
,  // measure 39
1000
0000
0000
0001
0000
0000
0010
0000
0000
0000
1000
0000
0001
0000
0100
0000
,  // measure 40
1000
0001
0000
0010
0000
1000
0000
0001
,  // measure 41
0000
1000
0000
0001
0000
1000
0010
1000
,  // measure 42
0010
0000
1010
0000
0001
0100
1000
0001
,  // measure 43
0010
0100
0001
0100
1000
0001
0010
0100
,  // measure 44
0010
0001
0100
1000
,  // measure 45
1001
0000
0010
0010
1001
0000
0100
0000
,  // measure 46
0100
0000
1000
0000
0001
0000
0010
0000
1000
0000
0010
0001
0000
0000
0000
0000
,  // measure 47
0100
0010
1000
0100
0010
1000
0001
0000
,  // measure 48
0010
0000
0000
0000
1000
0000
0000
0000
0100
0000
0010
0001
0000
0000
0000
0000
1000
0000
0000
0000
0001
0000
0000
0000
0100
0000
0000
0000
0010
0000
0000
0000
,  // measure 49
1000
0001
0100
0010
0001
1000
0100
0001
,  // measure 50
1000
0000
0100
0010
0000
0000
0000
0000
1000
0000
0001
0000
0100
0000
1000
0000
,  // measure 51
0010
0001
0100
0010
2000
0000
3002
0000
,  // measure 52
0003
0000
0000
0000
;

//---------------dance-single - ----------------
#NOTES:
     dance-single:
     :
     Challenge:
     9:
     0.571,0.577,0.538,0.047,0.193:
1001
0000
0000
0000
1100
0000
0000
0000
0001
0000
0000
1100
0000
0000
0000
0000
0001
0000
1000
0000
0100
0000
1000
0000
0010
0000
0000
0000
1000
0000
0001
0000
,
1000
0000
0000
0000
0010
0000
0000
0000
0000
0000
0100
0000
0001
0000
0000
0000
1000
0000
0000
1001
0000
0000
0010
0000
0000
0000
0000
0000
1000
0000
0000
0000
,
0001
0000
0100
0000
0000
0000
0010
0000
1000
0000
0100
0000
0010
0000
0100
1000
,
0100
1001
0000
0010
0100
0001
0100
1000
,
0020
0000
0100
0000
0100
0000
0100
0030
0200
0000
0010
0000
0010
0000
0010
0300
,
0001
1000
0001
1000
0001
0000
0010
0000
0100
0000
1000
0100
0000
0000
0010
0000
,
0100
1000
0100
1000
0001
0010
0001
0010
,
0100
1000
0100
1000
0100
0000
1000
0000
0010
0000
0100
0001
0000
0000
1000
0000
,
0010
0100
0001
0100
0010
1000
0100
0000
,
1000
0010
1000
0010
1000
0000
0010
0000
0100
0000
0010
1000
0000
0000
0010
0000
,
0100
0100
0010
0010
1000
1000
0001
0001
,
1000
0100
1000
0100
1000
0000
0010
0000
0100
0000
0010
1000
0000
0000
0010
0000
,
0100
0001
0100
0010
1000
0010
0010
0000
,
0100
0010
0100
0100
0001
0001
1001
0000
,
1000
0010
1010
0000
0001
0100
0101
0000
,
0001
0100
0001
0100
0010
1000
0010
0000
,
1001
0000
0110
1001
0110
0000
1000
0000
,
0100
1000
0001
0100
0001
1000
0100
0000
,
1001
0000
0000
0110
0000
0000
0010
0000
1001
0000
0000
0101
0000
0000
0000
0000
,
0100
0010
0100
0001
0100
1000
0100
0000
,
0101
0000
1001
1001
1001
0000
1100
0000
,
0001
0001
1000
1000
0001
1000
0001
0000
,
0010
0010
0110
0000
1000
1000
1001
0000
,
0001
0010
0100
1000
0010
0100
0001
0000
,
2001
0000
3001
1000
0010
0000
1001
0000
,
0001
0000
1000
0000
0001
0000
1000
0000
0010
0000
0100
0010
0000
0000
1000
0000
,
0100
0000
1000
0100
0000
0000
0010
0000
0001
0000
0010
0001
0000
0000
1000
0000
,
0100
0100
0010
0010
0110
0110
0110
0000
,
1001
0000
1000
0001
1000
0000
0010
0100
,
1001
0000
0100
0010
1001
0000
0001
0010
,
0100
0000
0000
1100
0000
0000
1001
0000
0000
0000
0010
0000
0100
0000
0001
0000
,
0100
1000
0000
1001
0000
0110
0000
0011
,
0000
1100
0000
0110
0000
0001
0100
1000
,
0100
1001
0010
1001
,
0100
1000
0000
0001
0000
1001
0000
0001
,
0010
0000
1100
0000
1001
0000
0001
0010
,
0000
0100
1000
0100
1000
0001
0010
0100
,
0110
0000
1000
0100
0010
0001
0010
0100
,
0010
0000
0000
0011
0000
0000
1001
0000
0000
0000
0001
0000
1000
0000
0100
0000
,
0010
0001
0000
1001
0000
1010
0000
1001
,
0010
0000
0100
1001
0000
1000
0100
0001
,
0100
0000
1100
0000
0001
0010
0100
0010
,
0100
0000
0000
1100
0000
0000
1001
0000
0000
0000
1000
0000
0100
0000
1000
0000
,
0001
1100
1001
0101
,
1001
0000
0100
1000
0100
0000
1000
0000
0001
0000
1000
0001
1000
0000
0001
0000
,
1000
0100
1000
0100
1000
0000
0100
0000
0010
0000
0001
1000
0000
0000
0001
0000
,
0010
0100
1000
1000
0100
0010
0001
0100
,
0001
0000
0100
0000
0001
0000
0100
0000
0010
0000
0100
0010
0000
0000
1000
0000
0001
0000
0000
0000
0100
0000
0000
0000
0001
0000
0000
0000
0100
0000
0000
0000
,
0010
0000
1000
0000
0010
0000
1000
0000
0001
0010
0001
0010
0001
0000
0010
0000
,
0100
0000
0010
0100
0000
0000
0010
0000
0001
0000
0010
0000
0001
0000
1000
0000
,
0100
0010
0001
1000
0020
0000
0230
0000
,
0300
0000
0000
0000
;

//---------------dance-single - ----------------
#NOTES:
     dance-single:
     :
     Medium:
     5:
     0.350,0.385,0.236,0.104,0.028:
1000
0000
1000
0000
1000
0000
1000
0000
0010
0000
0100
0000
1001
0000
0000
0100
,
1000
0010
0000
0010
1000
0100
0000
1000
,
0001
0000
1000
0000
1100
0000
0001
0001
,
0001
0000
0000
1000
0100
1000
0010
0000
,
1000
0000
0010
0000
0100
0000
1000
0001
,
1000
0000
0000
0000
0010
0000
0000
0000
1000
0000
0100
1000
0000
0000
0000
0000
,
0001
0010
0100
0001
,
0010
0000
0100
0000
0001
0001
0001
0000
,
0000
0100
1000
0010
,
0100
0000
0001
0000
0100
0100
0100
0000
,
0000
1000
0000
0000
0010
0000
0000
0000
0100
0000
0000
0000
0001
0000
0000
0000
,
0100
0000
1000
0000
0001
0001
0001
0000
,
1000
0010
0100
0001
,
0100
1000
0010
1001
,
0100
1001
0100
0011
,
0001
0100
1000
1100
,
0001
0000
0010
0010
0010
0000
1001
0000
,
0100
1000
0001
1001
,
0010
1100
0001
1100
,
0001
0010
0100
0001
,
0100
0000
1000
0100
1000
0000
1001
0000
,
0010
0100
0001
1001
,
0001
0000
0001
0000
0001
0000
0000
0000
1000
0000
0000
1000
1000
0000
0000
0000
,
0001
0000
0010
0000
0100
0010
0100
0000
,
0101
0100
1000
0010
,
1010
0000
0000
0000
0001
0000
0000
0000
0000
0100
0000
1000
0100
0000
0000
0000
,
0001
1001
0100
1001
,
0001
0010
0100
0000
0001
0100
1000
0000
,
0010
0100
1001
0000
,
2002
3003
0220
0330
,
0001
0100
1000
0001
,
0020
0030
2000
3000
,
0001
0100
1000
0010
,
1001
0000
1100
0000
,
0001
0000
1000
0000
0100
0000
0010
0100
,
0010
0001
0100
1000
,
0001
0000
0010
0100
0010
0000
0001
0000
,
1001
0000
0100
0000
1000
0000
0001
1000
,
0001
0000
0010
0000
0100
0000
0001
0100
,
0001
0010
1000
0001
,
1001
0000
0100
0000
0010
0100
0010
0100
,
0010
0001
0100
0010
,
0110
0000
0001
0000
1000
0000
0001
1000
,
0001
1000
0100
0010
,
2020
0030
0010
0010
,
3001
0000
1000
0000
0100
1000
0100
0000
,
0010
0100
0001
0100
,
0200
0000
0301
1000
,
0010
0100
0001
0010
,
0001
0100
0001
0000
1000
0000
0010
0000
,
0100
0001
0200
0320
,
0030
0000
0000
0000
;

//---------------dance-single - ----------------
#NOTES:
     dance-single:
     :
     Easy:
     3:
     0.264,0.265,0.170,0.179,0.000:
0100
0100
0001
1001
,
0100
0020
1030
0000
,
0001
1000
0100
0010
,
1001
0000
0100
0000
,
0010
0010
0010
0000
,
1000
0010
2000
0000
,
3001
0010
0100
0001
,
0010
0100
0020
0000
,
0130
0001
1000
0100
,
0100
1000
0002
0000
,
1003
0010
0100
0001
,
0010
0100
0020
0000
,
1030
0001
1000
0000
,
0001
0010
0001
0101
,
0001
0101
0001
0101
,
0001
1000
0010
0010
,
0100
0100
1001
0000
,
0100
0010
1000
1100
,
1000
1100
1000
1100
,
0001
0010
0100
0010
,
1000
0100
1100
0000
,
0001
1000
0010
0100
,
0000
0100
0000
0100
,
0010
0001
1000
0001
,
1000
0010
0100
0000
,
0001
0001
1000
1000
,
0000
0020
0030
0100
,
0001
1000
0001
0010
,
0001
0000
0000
0000
,
1001
0000
0110
0000
,
0001
0000
2000
3000
,
0001
1000
0010
0100
,
0001
1000
0001
0010
,
0101
0000
1001
0000
,
1100
0000
1001
0000
,
0001
1000
0010
0001
,
0200
0000
0300
0010
,
0100
0000
0001
1000
,
0020
0030
0010
0000
,
1000
0000
1002
0003
,
0002
0003
0001
0001
,
0200
0000
0300
0010
,
0100
0001
0010
0001
,
1000
0000
0010
0000
,
2002
0000
0000
3003
,
0001
1000
0020
0030
,
0100
0001
1000
0001
,
0200
0000
0301
1000
,
0010
0100
0001
1000
,
0020
0000
0130
0001
,
1000
0001
2000
3200
,
0300
0000
0000
0000
;
