#TITLE:Save Me;
#SUBTITLE:;
#ARTIST:Leslie Parrish;
#TITLETRANSLIT:;
#SUBTITLETRANSLIT:;
#ARTISTTRANSLIT:;
#CREDIT:;
#BANNER:Save Me-bn.PNG;
#BACKGROUND:Save Me-bg.PNG;
#LYRICSPATH:;
#CDTITLE:cdtitle.png;
#MUSIC:Save Me.mp3;
#OFFSET:-6.240;
#SAMPLESTART:64.744;
#SAMPLELENGTH:12.000;
#SELECTABLE:YES;
#DISPLAYBPM:156.000;
#BPMS:0.000=155.750;
#STOPS:;
#BGCHANGES:;

//---------------dance-single - ----------------
#NOTES:
     dance-single:
     :
     Hard:
     8:
     0.608,0.500,0.246,0.502,0.000:
2000
3002
2003
0000
,
0001
0000
0001
0000
,
0001
0000
0001
3001
,
1000
0000
0010
0000
0100
0001
0101
0000
,
1000
0001
0200
0000
0310
0100
0001
0100
,
0010
1000
0002
0000
0013
0001
0010
0100
,
1000
0001
2000
0000
3001
0010
0100
0010
,
0001
0100
0020
0000
0130
0001
0100
0010
,
1000
0001
0020
0000
0031
0010
0001
0100
,
0010
1000
0200
0000
1300
0100
0010
0001
,
1000
0010
0200
0000
0310
1000
0001
0010
,
0002
0000
1003
0000
0010
1000
1001
0000
,
0002
0000
1003
0000
0001
1000
0010
0100
,
0020
0000
0130
0000
0010
0100
0001
1000
,
0020
0000
0130
0001
0200
0000
0301
1000
,
0020
0000
1030
0000
0010
1000
0100
0010
,
0200
0000
0310
0001
0020
0000
0031
1000
,
0020
0000
1030
0000
0010
1000
0010
0100
,
0020
0230
0302
1003
,
0010
1000
0001
0100
0010
1000
0001
0010
,
0002
0000
0013
0000
0001
0010
0100
1000
,
0000
0000
1001
0000
0100
0001
0100
0010
,
2000
0000
3001
0100
0002
0000
1003
0100
,
0020
0000
0031
0000
0010
0001
0100
0010
,
0200
0000
0310
1000
0002
0000
1003
0100
,
0020
0000
0031
0000
0010
0001
0100
0010
,
2000
3002
0203
0320
,
1030
0001
1000
0010
0100
0001
0010
0100
,
2000
0010
0001
3010
,
0002
0100
1000
0103
,
0010
0000
0100
0000
0010
0100
0010
0100
,
0120
0000
1030
0000
0010
0100
0001
1000
,
1001
0000
1000
0001
2000
0000
3010
0100
,
0002
0000
0103
0010
1000
0001
0010
0001
,
1000
0000
0010
0000
0100
0001
0100
0010
,
1001
0000
0001
0100
0010
1000
0001
0000
,
1010
0000
0010
1000
0001
0010
0001
0000
,
0011
0000
0100
1000
0001
1000
0010
0000
,
2001
0000
3010
0000
0010
0100
1001
0000
,
0100
0001
0100
0010
1000
0001
0010
0000
,
1001
0000
0110
0000
1001
0000
0010
1000
,
0001
0100
0010
1000
0001
0010
0100
0000
,
0110
0000
1001
0000
0110
0000
0010
0100
,
0001
1000
0010
0100
0001
1000
0010
1000
,
0002
1003
0020
0130
,
0100
0010
0100
0001
0010
0100
0010
0000
,
1002
0000
0103
0000
0100
0010
1001
0000
,
0010
1000
0010
0100
0001
1000
0100
0000
,
1001
0000
0110
0000
1001
0000
0100
0001
,
1000
0010
0100
0001
1000
0100
0010
0000
,
0110
0000
1001
0000
0110
0000
0100
0010
,
1000
0001
0100
0010
1000
0001
0100
0001
,
2000
0000
3001
0000
0100
0010
1000
0001
,
0200
0000
0310
0000
1000
0010
1001
0000
,
0001
1000
0020
0000
0130
0010
1000
0010
,
0100
0001
2000
0000
3100
1000
0100
0010
,
0001
1000
0002
0000
1003
0100
0010
0100
,
1000
0010
0200
0000
0310
1000
0010
0100
,
0001
1000
0200
0000
1300
0100
1000
0010
,
0100
0001
0020
0000
0031
0010
0100
1000
,
0001
0100
0020
0000
0130
0001
1000
0100
,
2000
0000
3001
0000
0100
0001
2001
0000
,
3001
0000
0000
0000
;

//---------------dance-single - ----------------
#NOTES:
     dance-single:
     :
     Medium:
     6:
     0.414,0.441,0.104,0.218,0.000: // measure 1
0000
0000
0000
0000
,  // measure 2
0000
0000
0000
0000
,  // measure 3
0000
0000
0000
0000
,  // measure 4
0000
0000
0000
0000
,  // measure 5
0001
0100
0001
0000
0100
0000
0010
0000
,  // measure 6
1000
0010
1000
0000
0010
0000
0100
0000
,  // measure 7
0001
1000
0001
0000
1000
0000
0100
0000
,  // measure 8
0010
0100
0010
0000
0100
0000
1000
0000
,  // measure 9
0001
0100
0001
0000
0100
0000
0001
0000
,  // measure 10
0010
0100
0010
0000
0100
0000
1000
0000
,  // measure 11
0001
1000
0001
0000
1000
0000
0001
0000
,  // measure 12
0200
0320
2030
3001
,  // measure 13
1001
0000
1000
0000
0010
1000
0010
0000
,  // measure 14
0100
0000
0001
0000
0100
0010
0100
0000
,  // measure 15
0001
0000
1000
0000
0001
1000
0001
0000
,  // measure 16
1000
0000
0010
0000
1000
0010
1000
0000
,  // measure 17
0100
0000
1000
0000
0100
0010
0100
0000
,  // measure 18
0010
0000
0001
0000
0010
0001
0010
0000
,  // measure 19
0200
2300
3020
0130
,  // measure 20
0001
0100
0001
0000
1000
0010
1000
0000
,  // measure 21
0002
0000
0013
0000
0100
1000
0010
0000
,  // measure 22
0200
0000
0301
0000
0010
0100
1000
0000
,  // measure 23
0020
0000
0130
0000
0001
0010
0100
0000
,  // measure 24
2000
0000
3010
0000
0100
0001
0010
0000
,  // measure 25
0001
0010
0100
0000
1000
0010
0100
0000
,  // measure 26
0010
1000
0001
0000
1000
0010
0100
0000
,  // measure 27
0002
2003
3020
0230
,  // measure 28
0301
1000
0010
0000
0100
0001
0100
0000
,  // measure 29
0020
1000
1000
1030
,  // measure 30
2000
0010
0010
3010
,  // measure 31
0010
0100
0001
1000
,  // measure 32
1001
0000
0001
0001
,  // measure 33
1001
0000
0010
1000
0010
0000
0100
0001
,  // measure 34
0100
0010
1000
0001
,  // measure 35
1001
1000
0010
1000
,  // measure 36
0010
1000
0010
1000
0000
0000
0010
0000
,  // measure 37
0100
0001
0100
0001
0000
0000
0100
0000
,  // measure 38
0010
1000
0001
0100
,  // measure 39
1002
1003
0000
0010
,  // measure 40
1000
0010
1000
1000
0000
0010
1000
0000
,  // measure 41
0001
0100
1001
0000
,  // measure 42
0010
1000
0010
0010
0000
1000
0010
0000
,  // measure 43
0100
0001
1001
0000
,  // measure 44
0001
1000
0001
0000
1000
0010
1000
0000
,  // measure 45
0020
0130
0000
0100
,  // measure 46
0100
0100
0010
0100
,  // measure 47
0210
0310
0000
0100
,  // measure 48
0001
0100
0001
0001
0000
0100
0001
0000
,  // measure 49
1000
0010
1001
0000
,  // measure 50
0100
0001
0100
0100
0000
0001
0100
0000
,  // measure 51
0010
1000
1001
0000
,  // measure 52
1000
0001
1000
0000
0001
0100
0001
0000
,  // measure 53
0200
0310
0000
0010
,  // measure 54
0010
0010
0100
0010
,  // measure 55
1000
0010
1000
0000
0010
0000
0100
0000
,  // measure 56
0001
0100
0001
0000
0100
0000
0010
0000
,  // measure 57
1000
0001
1000
0000
0001
0000
0010
0000
,  // measure 58
0100
0010
0100
0000
0010
0000
0001
0000
,  // measure 59
1000
0010
1000
0000
0010
0000
1000
0000
,  // measure 60
0100
0010
0100
0000
0010
0000
0001
0000
,  // measure 61
1000
0001
1000
0000
0001
0000
1000
0000
,  // measure 62
0020
0230
0302
1003
,  // measure 63
1001
0000
0000
0000
;

//---------------dance-single - ----------------
#NOTES:
     dance-single:
     :
     Easy:
     4:
     0.320,0.294,0.133,0.171,0.000: // measure 1
0010
1000
0010
0000
,  // measure 2
1000
0000
0001
0000
,  // measure 3
1000
0000
0001
0000
,  // measure 4
1000
1000
0010
1010
,  // measure 5
0010
1000
0010
1000
,  // measure 6
0001
0100
0001
0100
,  // measure 7
0010
0100
0010
0100
,  // measure 8
0010
1000
0100
1000
,  // measure 9
0100
0010
0001
1000
,  // measure 10
0001
0010
0100
1000
,  // measure 11
0001
0100
0010
1000
,  // measure 12
0010
0100
0001
1000
,  // measure 13
1001
0000
0001
0001
,  // measure 14
0001
0000
1000
1000
,  // measure 15
2000
0000
3020
0000
,  // measure 16
0230
0000
0301
0001
,  // measure 17
0020
0000
0230
0000
,  // measure 18
2300
0000
3001
1000
,  // measure 19
0010
0000
1000
0000
,  // measure 20
0001
0001
1000
0010
,  // measure 21
1001
0000
0001
1000
,  // measure 22
0001
0000
1000
0010
,  // measure 23
2000
0000
3002
0000
,  // measure 24
0203
0000
0310
0100
,  // measure 25
0020
0000
0230
0000
,  // measure 26
0302
0000
1003
0010
,  // measure 27
1000
0000
0001
0000
,  // measure 28
1000
1000
0001
1000
,  // measure 29
1001
0000
0001
1000
,  // measure 30
0000
0001
1000
0010
,  // measure 31
0100
0010
0000
0100
,  // measure 32
1001
0000
0001
0001
,  // measure 33
0002
0000
1000
1003
,  // measure 34
0000
1000
0001
1000
,  // measure 35
0020
0000
0100
0130
,  // measure 36
0200
0010
0010
0310
,  // measure 37
0002
1000
1000
1003
,  // measure 38
1000
0000
0001
1000
,  // measure 39
1001
1001
0000
0001
,  // measure 40
1000
0010
0100
0001
,  // measure 41
1000
0001
1001
0000
,  // measure 42
0001
0001
1000
0010
,  // measure 43
1000
0010
1010
0000
,  // measure 44
0100
0100
0001
1000
,  // measure 45
1001
0000
0000
0001
,  // measure 46
0001
1000
0100
0010
,  // measure 47
0001
0011
0000
0100
,  // measure 48
1000
0010
0100
0010
,  // measure 49
0100
0001
1001
0000
,  // measure 50
0010
0100
0001
0100
,  // measure 51
0010
0100
1001
0000
,  // measure 52
1000
1000
0001
0001
,  // measure 53
0020
0000
0000
0031
,  // measure 54
0002
0000
0103
0000
,  // measure 55
0100
0001
0100
0001
,  // measure 56
1000
0010
1000
0010
,  // measure 57
0100
0010
0100
0010
,  // measure 58
0100
0001
0010
0001
,  // measure 59
0010
0100
1000
0001
,  // measure 60
1000
0100
0010
0001
,  // measure 61
1000
0010
0100
0001
,  // measure 62
0100
0010
1000
0001
,  // measure 63
1001
0000
0000
0000
;
