#TITLE:Russian Girl;
#SUBTITLE:;
#ARTIST:Jeff Driller;
#TITLETRANSLIT:;
#SUBTITLETRANSLIT:;
#ARTISTTRANSLIT:;
#CREDIT:;
#BANNER:Russian Girl-bn.png;
#BACKGROUND:Russian Girl-bg.png;
#LYRICSPATH:;
#CDTITLE:cd.png;
#MUSIC:Russian Girl.mp3;
#OFFSET:-7.522;
#SAMPLESTART:61.830;
#SAMPLELENGTH:12.000;
#SELECTABLE:YES;
#BPMS:0.000=160.090;
#STOPS:66.000=0.750
,66.500=0.187
,67.500=0.187
,69.000=0.187
,72.500=0.187
;
#BGCHANGES:;

//---------------dance-single - ----------------
#NOTES:
     dance-single:
     :
     Hard:
     8:
     0.638,0.564,0.648,0.275,0.029:
2001
0000
3010
0010
1002
0000
1003
0001
,
1000
0010
0100
0001
0100
0000
0010
0010
,
0010
0000
0100
0010
0100
0000
0010
0100
,
0010
1000
0001
0100
0010
1000
0001
0001
,
0002
0000
1003
0001
2001
0000
3001
1000
,
0010
0100
0001
1000
0010
0100
0001
1000
,
0010
0000
0100
0010
0100
0000
0001
0000
1000
0000
0001
0000
0000
0000
1000
0000
,
0001
0000
1000
0010
1000
0000
0001
0000
1000
0000
0002
0000
0000
0000
1003
0000
,
2001
0010
0010
3010
,
1002
0103
2001
3010
,
1001
0000
0010
0100
0001
0000
1001
0000
,
0001
0010
0100
1000
0100
0000
1000
0100
,
1000
0010
1000
0001
0100
0010
1000
0001
,
2000
3001
1001
1001
,
0010
0100
0001
1000
0010
0000
1001
0000
,
0010
0001
0100
0010
0100
0000
0101
0000
,
0001
0010
0100
1000
1001
1000
0001
0002
,
0003
1000
2000
3000
0001
0001
1000
1000
,
0001
1001
0010
0010
0020
0000
0130
0100
,
0200
0000
0301
0010
0200
0000
1300
0010
,
0200
0000
0301
0000
1001
0000
0100
0001
,
0100
0000
0000
0000
1010
0000
0000
0000
1001
0000
0001
1000
0001
0000
0100
0000
,
0001
1000
0010
0010
1001
0000
0100
0100
,
1001
0000
0100
0100
0010
1000
0001
0100
,
0010
0000
1001
0000
2000
0000
3001
0100
,
1000
0000
0100
0010
1001
0000
0110
0000
,
2001
3010
1010
0101
,
0010
1000
1001
0000
0011
0000
1100
0000
,
0001
0010
1100
0000
1001
0000
0110
0000
,
0001
1000
0010
0000
1000
1000
0010
0010
,
0100
0010
0110
0000
1001
0000
0110
0000
,
1000
0001
1001
0000
0011
0000
1100
0000
,
0010
0100
0110
0000
1001
0000
0110
0000
,
0001
1000
0010
0000
1000
0001
1000
0010
,
1001
0000
0000
0000
,
0000
1000
1000
1000
,
2001
3010
1002
0103
,
1001
0000
0100
0010
1000
0000
1001
0000
,
1000
0100
0010
0001
0010
0000
0001
0010
,
0001
0100
0001
1000
0010
0100
0001
1000
,
0002
1003
1001
1001
,
0100
0010
1000
0001
0100
0000
1001
0000
,
0100
1000
0010
0100
0010
0000
1010
0000
,
1000
0100
0010
0001
1002
0000
1000
0000
,
1000
1003
0210
1300
,
0120
0000
0031
0000
1001
0000
0001
1000
,
0100
0000
1001
0000
0100
0001
1000
0010
,
1000
0000
0010
1000
0010
0001
0010
1000
,
0001
0100
0010
0100
0020
0000
0130
0000
,
1001
0000
0110
0000
0001
1000
0100
0010
,
0001
0000
1100
0000
1000
0001
0100
0001
,
1000
0000
0101
0000
0100
0001
1000
0010
,
1001
0000
0000
0000
1002
0000
0103
0100
,
2001
0000
3001
1000
0001
0100
0010
1000
,
0010
0000
0101
0000
1010
0000
0010
0100
,
0010
0000
0100
0010
0100
0001
1000
0010
,
0100
0001
1000
0000
2001
0000
3001
1000
,
1002
0000
1003
0001
0100
0010
1000
0001
,
0100
0000
0000
0000
0001
0000
1000
0000
0010
0000
0100
0010
0100
0000
0001
0000
,
1000
0000
0000
0000
0001
0000
1000
0000
0001
0000
1000
0010
1000
0000
0001
0000
,
1000
0000
0001
1000
0001
0000
1000
0000
1001
0000
0000
0000
0000
0000
0000
0000
;

//---------------dance-single - ----------------
#NOTES:
     dance-single:
     :
     Medium:
     5:
     0.393,0.446,0.275,0.059,0.000: // measure 1
0001
0000
0000
1000
0001
0000
0000
1000
,  // measure 2
0001
1000
0001
0000
,  // measure 3
0100
0010
0100
0000
,  // measure 4
0010
0100
0010
0100
0010
0000
0000
0000
,  // measure 5
1000
0000
0001
0000
,  // measure 6
1000
0001
1000
0000
,  // measure 7
0001
1000
0001
0000
1001
0000
0000
0000
,  // measure 8
0001
1000
0001
0000
1001
0000
0000
0000
,  // measure 9
1001
0000
0000
0000
,  // measure 10
1000
1000
0001
0001
,  // measure 11
1000
0001
1000
0001
,  // measure 12
1000
0010
1000
0010
1000
0000
2002
0000
,  // measure 13
0003
0001
0001
3001
,  // measure 14
0001
0001
1000
1000
,  // measure 15
0101
0101
1010
1010
,  // measure 16
1000
0001
1000
0001
,  // measure 17
1000
0010
0100
0000
1001
1000
0001
0001
,  // measure 18
0000
0000
1000
0000
0000
0001
0000
1000
,  // measure 19
0000
1001
0000
0000
0010
0000
1000
0000
,  // measure 20
0001
0000
1000
0001
,  // measure 21
1000
0000
0000
0000
0001
0000
1000
0001
,  // measure 22
1000
0010
0020
1000
,  // measure 23
1000
0030
1000
0000
1000
0000
0001
0000
,  // measure 24
1000
0000
1000
0010
,  // measure 25
1000
0000
0000
0000
0010
0000
0001
1000
,  // measure 26
0001
1000
1001
1001
,  // measure 27
0110
0000
1000
0001
,  // measure 28
1000
0010
1000
0000
0001
0000
0100
0000
,  // measure 29
0010
1000
0001
0000
0010
0000
0100
0000
,  // measure 30
1000
0100
1000
0000
0001
1000
0001
1000
,  // measure 31
0001
1000
0001
0000
1000
0000
0010
0000
,  // measure 32
0100
0001
0100
0000
0010
0000
1000
0000
,  // measure 33
0001
1000
0001
0000
0100
0000
0010
0000
,  // measure 34
1000
0001
0010
0000
0100
0000
1000
0000
,  // measure 35
1001
0000
0000
0000
,  // measure 36
0000
0010
0010
0010
,  // measure 37
1000
0001
1000
1001
,  // measure 38
0001
1000
0010
1000
,  // measure 39
0001
1000
0001
1000
0001
0000
2000
0000
,  // measure 40
0000
0001
3001
1000
,  // measure 41
0010
0010
0100
0100
,  // measure 42
1010
1010
0101
0101
,  // measure 43
0010
0100
0010
0100
0010
0000
0100
0000
,  // measure 44
0001
1000
0001
1000
0001
0000
2000
0000
,  // measure 45
0001
0001
3010
0010
,  // measure 46
0100
0100
0010
0100
,  // measure 47
0010
0000
0110
0000
0010
1000
0010
1000
,  // measure 48
0010
2000
0000
0001
,  // measure 49
0001
3001
0001
1000
,  // measure 50
0001
1000
1010
1010
,  // measure 51
0110
0000
1001
0000
0001
1000
0001
1000
,  // measure 52
0001
0000
1000
0000
0001
1000
0010
1000
,  // measure 53
0010
0000
0000
0000
1000
0000
0000
0001
,  // measure 54
1000
0000
0000
0001
1000
0000
0001
0000
,  // measure 55
1000
0000
0010
0100
,  // measure 56
0010
0000
0000
0000
0100
0010
0100
0010
,  // measure 57
0100
0000
0001
0000
,  // measure 58
1000
0000
0001
1000
,  // measure 59
0001
0000
0000
0000
1000
0001
1000
0000
,  // measure 60
1001
0000
0000
0000
1000
0001
1000
0000
,  // measure 61
1001
0110
1001
0000
;

//---------------dance-single - ----------------
#NOTES:
     dance-single:
     :
     Easy:
     3:
     0.237,0.238,0.039,0.010,0.000: // measure 1
1000
0000
0001
0000
,  // measure 2
1000
1000
1000
0000
,  // measure 3
0001
0000
1000
0000
,  // measure 4
0001
0001
0001
0000
,  // measure 5
0100
0000
0010
0000
,  // measure 6
0100
0100
0100
0000
,  // measure 7
0010
0010
0010
0000
,  // measure 8
0100
0100
0010
0000
,  // measure 9
0100
0000
0000
0000
,  // measure 10
1000
0000
0001
0000
,  // measure 11
1000
1000
0001
1000
,  // measure 12
0010
0000
0100
0000
,  // measure 13
0010
0100
0001
1000
,  // measure 14
0010
0000
1000
0000
,  // measure 15
0001
0001
0100
0100
,  // measure 16
0010
0000
1000
0000
,  // measure 17
0001
1000
0001
0000
,  // measure 18
1000
0001
1000
0001
,  // measure 19
1000
0000
0010
0000
,  // measure 20
0100
0000
0010
0100
,  // measure 21
0010
0000
1000
0000
,  // measure 22
0001
0000
1000
0010
,  // measure 23
1000
0000
0001
0000
,  // measure 24
0100
0000
0010
1000
,  // measure 25
0010
0000
0100
0000
,  // measure 26
0010
0000
1001
0000
,  // measure 27
1001
0000
0001
0000
,  // measure 28
0001
0001
1000
0000
,  // measure 29
1000
1000
0010
0000
,  // measure 30
0010
0010
0100
0000
,  // measure 31
0010
0000
0100
0000
,  // measure 32
0100
0100
0001
0000
,  // measure 33
0001
0001
1000
0000
,  // measure 34
1000
1000
0010
0000
,  // measure 35
0100
0000
0000
0000
,  // measure 36
0000
1000
0000
0001
,  // measure 37
1000
0000
0001
0000
,  // measure 38
1000
1000
0001
1000
,  // measure 39
0010
0000
0100
0000
,  // measure 40
0010
0010
1000
0001
,  // measure 41
1000
0000
0001
0000
,  // measure 42
1000
1000
0001
1000
,  // measure 43
0001
0000
1000
0000
,  // measure 44
0010
0100
0020
0000
,  // measure 45
0100
0100
0130
0000
,  // measure 46
0010
0000
0100
0010
,  // measure 47
1000
0001
1000
0000
,  // measure 48
0001
0000
1000
0001
,  // measure 49
0100
0010
1000
0000
,  // measure 50
0001
0000
1000
0001
,  // measure 51
1000
0010
0100
0001
,  // measure 52
1000
0000
0001
1000
,  // measure 53
0010
0000
1001
0000
,  // measure 54
0010
0000
0100
0100
,  // measure 55
0100
0000
0010
0000
,  // measure 56
0100
0000
0001
1000
,  // measure 57
0001
0000
1000
0000
,  // measure 58
0001
0000
1000
1000
,  // measure 59
1000
0000
0001
1000
,  // measure 60
0001
0000
1000
0010
,  // measure 61
0100
0000
1001
0000
;
