#TITLE:Running Ninja;
#SUBTITLE:;
#ARTIST:Eurofunk;
#TITLETRANSLIT:;
#SUBTITLETRANSLIT:;
#ARTISTTRANSLIT:;
#CREDIT:;
#BANNER:Running Ninja-bn.PNG;
#BACKGROUND:Running Ninja-bg.PNG;
#LYRICSPATH:;
#CDTITLE:cd.png;
#MUSIC:Running Ninja.mp3;
#OFFSET:-6.000;
#SAMPLESTART:65.190;
#SAMPLELENGTH:12.000;
#SELECTABLE:YES;
#BPMS:0.000=162.000,76.000=81.000,78.000=162.000,106.000=81.000,108.000=162.000;
#STOPS:;
#BGCHANGES:;

//---------------dance-single - ----------------
#NOTES:
     dance-single:
     :
     Medium:
     5:
     0.435,0.398,0.029,0.312,0.000: // measure 1
0000
0010
0000
0100
0000
0001
0000
0010
,  // measure 2
0000
1000
0000
0001
0000
0100
1000
0000
,  // measure 3
0020
0130
0002
0103
,  // measure 4
0020
0000
1030
0000
0100
1000
0010
0100
,  // measure 5
0000
0001
0000
0010
0000
1000
0000
0100
,  // measure 6
0000
1000
0000
0001
0000
0010
0100
0000
,  // measure 7
0002
0103
2000
3001
,  // measure 8
0020
0000
0030
0100
1000
0100
1000
0010
,  // measure 9
0000
0100
0000
0001
0000
0100
0000
1000
,  // measure 10
0000
0001
0000
1001
0000
0000
0010
0000
,  // measure 11
0100
1000
0100
1000
0000
0010
0000
0010
,  // measure 12
0000
0100
0001
0100
0000
0010
0000
0010
,  // measure 13
0000
0001
0000
0100
0000
1000
0000
1000
,  // measure 14
0000
0010
1000
0100
0000
0001
0100
0000
,  // measure 15
0001
0010
0001
0010
0000
0100
1000
0100
,  // measure 16
0000
0010
0100
0010
0000
0001
0100
0000
,  // measure 17
1000
0000
0010
0000
0100
0001
0000
0010
,  // measure 18
0000
1000
0100
0000
0010
0100
0000
0001
,  // measure 19
0000
0010
1000
0000
0100
1000
0000
0002
,  // measure 20
0000
2003
3001
1000
,  // measure 21
0010
0100
0000
0001
0000
0100
1000
0000
,  // measure 22
0010
0100
0000
0002
0000
0000
2003
0000
,  // measure 23
3010
0000
1000
0100
0000
0010
1000
0010
,  // measure 24
0000
0100
1000
0000
0001
0000
0100
0000
,  // measure 25
0010
0100
0000
0001
0000
0100
1000
0000
,  // measure 26
0010
0100
0000
0001
0000
0001
0001
0000
,  // measure 27
0000
0100
1000
0200
0000
0000
0320
0000
,  // measure 28
0031
0000
1000
0000
0010
0100
0000
0001
,  // measure 29
0000
0100
1000
0000
0010
0100
0000
0002
,  // measure 30
0000
0000
2003
0000
3010
0100
0001
0100
,  // measure 31
0000
0010
0000
1000
0000
0000
0100
0000
,  // measure 32
2000
0000
0000
0002
3000
0000
2003
0000
,  // measure 33
3020
0000
0000
0230
0000
0000
0301
0100
,  // measure 34
0001
0000
0010
1000
0000
0100
0000
0100
,  // measure 35
0000
2000
0001
3010
,  // measure 36
0200
0000
0000
0002
0300
0000
0023
0000
,  // measure 37
0230
0000
0000
2000
0300
0000
3001
0100
,  // measure 38
0001
0100
0000
0010
0000
1000
0000
0002
,  // measure 39
0000
0003
0100
1001
,  // measure 40
0100
0000
1000
0010
0000
0000
0100
1000
,  // measure 41
0000
0010
0100
0000
0002
0000
0013
0000
,  // measure 42
0100
0000
0010
0001
0000
0000
0100
1000
,  // measure 43
0000
0001
0010
0000
0200
0000
1300
0000
,  // measure 44
0000
0000
0001
0100
0001
0100
0000
1010
,  // measure 45
0000
0100
0010
1000
,  // measure 46
0002
0000
0000
0100
0000
0000
0013
0000
,  // measure 47
0000
0000
0000
1000
0000
0001
1000
0000
,  // measure 48
0010
0000
0100
0001
0000
0000
0100
0000
,  // measure 49
0000
0010
0001
0000
0020
0000
0130
0000
,  // measure 50
0001
0000
1000
0010
0000
0000
0100
1000
,  // measure 51
0000
0001
1000
0000
0020
0000
0130
0000
,  // measure 52
0000
0000
0001
0100
0010
0100
0000
0001
,  // measure 53
0000
1000
0100
0010
,  // measure 54
0020
0000
0000
1000
0000
0000
0031
0000
,  // measure 55
0000
0000
0000
0100
1000
0100
1000
0010
,  // measure 56
0000
0100
0000
0001
0000
1000
0000
0010
,  // measure 57
0000
0100
0000
0001
0000
0000
0010
0000
,  // measure 58
0100
1000
0010
1000
0000
0001
0000
0010
,  // measure 59
0000
0100
0001
0100
0000
0010
0100
0001
,  // measure 60
0000
0100
0000
1000
0000
0010
0000
0100
,  // measure 61
0000
0001
0100
0001
0000
0000
0010
0000
,  // measure 62
0100
1000
0100
1000
0000
0010
0100
0001
,  // measure 63
0000
0010
1000
0100
0000
0001
1000
0001
;

//---------------dance-single - ----------------
#NOTES:
     dance-single:
     :
     Easy:
     3:
     0.298,0.365,0.107,0.214,0.000:
1000
0010
1000
0000
,
0001
0100
0001
0000
,
0010
1000
0010
0000
,
0010
0100
0010
0000
,
0001
1000
0001
0000
,
1000
0100
1000
0000
,
0001
0100
0001
0000
,
1000
0000
0010
0000
,
0100
0100
0100
0010
,
0100
0010
0100
0000
,
0010
0010
0010
0000
,
0100
0100
0100
0000
,
0001
0001
1000
0001
,
1000
0001
1000
0000
,
1000
0010
1000
0000
,
0001
0100
0001
0000
,
1000
0000
0010
0010
,
0010
0000
0100
0100
,
0100
0000
0001
1000
,
2000
3020
0130
0000
,
0100
0001
0001
0000
,
0001
0100
0002
0000
,
2003
0000
0010
0010
,
0010
0010
3001
0000
,
0001
0100
1000
0000
,
0100
0010
0001
0000
,
1000
0001
0200
0320
,
1030
0000
0100
0010
,
0001
0000
0001
0010
,
0200
0000
0302
0000
,
2003
3010
0200
0301
,
2002
0000
3003
0000
,
0220
0000
0330
0000
,
0001
0001
0001
0000
,
1000
1000
1000
0010
,
0220
0000
0330
0000
,
2002
0000
3003
0000
,
0010
0010
0010
0000
,
0100
0010
0100
1001
,
1001
0000
0001
0000
,
0001
1000
0010
0100
,
0110
0000
0001
0000
,
1000
0100
0010
0001
,
1001
0000
0010
0000
,
0200
0000
0310
0000
,
0002
0000
0000
1000
0000
0000
1003
0000
,
0000
0000
0010
0010
,
1001
0000
1000
0000
,
1000
0001
0100
0010
,
0110
0000
1000
0000
,
0001
0010
0100
1000
,
1001
0000
0100
0000
,
0020
0000
0130
0000
,
2000
0000
0000
0001
0000
0000
3001
0000
,
0000
0000
0100
0100
,
0010
0010
0010
1000
,
0010
1000
0010
0000
,
1000
1000
1000
0000
,
0010
0010
0010
0000
,
0100
0100
0001
0100
,
0001
0100
0001
0000
,
0001
1000
0001
0000
,
0100
0010
0100
0000
;

//---------------dance-single - ----------------
#NOTES:
     dance-single:
     :
     Hard:
     7:
     0.590,0.490,0.389,0.331,0.010: // measure 1
2000
0000
3010
0000
1010
0000
0010
0100
,  // measure 2
0002
0000
0013
0000
0110
0000
0100
1000
,  // measure 3
0020
0000
0130
0000
0110
0000
0001
1000
,  // measure 4
0200
0000
1300
0000
1100
0000
0010
1000
,  // measure 5
0020
0000
0130
0000
0110
0000
0001
0010
,  // measure 6
0002
0000
0013
0000
0110
0000
0100
1000
,  // measure 7
0020
0000
1030
0000
1010
0000
0010
1000
,  // measure 8
0200
0000
1300
0010
1000
0001
0100
0010
,  // measure 9
0000
1010
0000
1100
0000
0200
0000
1300
,  // measure 10
0000
0010
1000
0010
1000
0001
1000
0000
,  // measure 11
0001
0100
0010
0100
0000
0110
0000
1001
,  // measure 12
0000
0001
0010
0001
0000
0100
0010
0100
,  // measure 13
0010
2000
0000
3100
0000
1010
0000
0101
,  // measure 14
0000
0110
0000
0101
0000
0010
1000
0010
,  // measure 15
0100
0001
1000
0020
0000
1030
0100
2000
,  // measure 16
0000
3001
1000
0002
0000
0013
0100
0000
,  // measure 17
2000
0000
3010
0000
0010
1000
0100
0000
,  // measure 18
0100
0010
0001
0000
0001
0100
0010
0000
,  // measure 19
0010
1000
0100
0000
0100
1000
0010
0000
,  // measure 20
0200
0320
0230
0301
,  // measure 21
1000
0010
1000
0000
0100
0010
0001
0000
,  // measure 22
0001
0100
0010
0000
0010
1000
0100
1000
,  // measure 23
0010
0100
0001
0100
0020
0000
0130
0000
,  // measure 24
1001
0110
0020
1030
,  // measure 25
0100
0010
0100
0000
1000
0010
0100
0000
,  // measure 26
0001
0100
0010
0000
0001
1000
0001
0000
,  // measure 27
0001
1000
0010
0200
0000
0300
0002
0000
,  // measure 28
0203
0000
0310
0000
0010
1000
0100
0000
,  // measure 29
0100
0010
0001
0000
0001
0100
0010
1000
,  // measure 30
0200
0000
1300
0000
0010
1000
0001
0100
,  // measure 31
0000
0110
0000
1001
0000
0001
0100
0001
,  // measure 32
0200
0000
0010
0000
0310
0000
0001
0010
,  // measure 33
0002
0000
0010
0000
0013
0000
0100
0010
,  // measure 34
0100
0000
0010
1000
0100
0000
0100
1000
,  // measure 35
0010
0100
0001
1000
0100
0010
0001
0100
,  // measure 36
0020
0000
0100
0000
0130
0000
1000
0100
,  // measure 37
0020
0000
0001
0000
0031
0000
0001
1000
,  // measure 38
0010
1000
0100
1000
0010
0100
0001
1000
,  // measure 39
0100
0000
1000
0000
0010
0000
1000
0000
0010
1000
0010
1000
0010
0000
0000
0000
,  // measure 40
0101
0000
1000
0001
0000
1000
0100
0010
,  // measure 41
0000
0001
0010
0000
1200
0000
1300
0000
,  // measure 42
1001
0000
0010
1000
0010
0000
1000
0100
,  // measure 43
0000
0010
0001
0000
1001
0000
0001
0100
,  // measure 44
1001
0000
0001
0010
0100
0000
1100
0000
,  // measure 45
0011
0010
0100
1000
,  // measure 46
0010
0000
1000
0100
1000
0000
0001
1000
,  // measure 47
0001
0000
1001
0000
0001
0010
0100
0000
,  // measure 48
1001
0000
0001
1000
0000
0001
0010
0100
,  // measure 49
0000
1000
0100
0000
0020
0000
0031
0000
,  // measure 50
1001
0000
0100
0001
0100
0000
0010
0100
,  // measure 51
0000
0001
1000
0000
0001
0000
1000
0010
,  // measure 52
1001
0000
1000
0100
0010
0000
0011
0000
,  // measure 53
1100
0100
0010
0001
,  // measure 54
1000
0000
0001
0010
0001
0000
1000
0001
,  // measure 55
1000
0000
0001
1000
0001
1000
0010
0100
,  // measure 56
0000
0101
0000
0011
0000
0020
0000
0031
,  // measure 57
0000
0100
0001
0100
0001
1000
0001
0000
,  // measure 58
1000
0010
0100
0010
0000
0110
0000
1001
,  // measure 59
0000
1000
0100
1000
0000
0010
0100
0010
,  // measure 60
0100
0002
0000
0013
0000
0101
0000
1010
,  // measure 61
0000
0110
0000
1010
0000
0100
0001
0100
,  // measure 62
0010
1000
0001
0200
0000
0301
1000
0002
,  // measure 63
0000
0013
0100
2000
0000
3001
1000
0010
;
