#TITLE:Resensitize;
#SUBTITLE:;
#ARTIST:Hixxy & Re-Con;
#TITLETRANSLIT:;
#SUBTITLETRANSLIT:;
#ARTISTTRANSLIT:;
#CREDIT:;
#BANNER:Resensitize-bN.png;
#BACKGROUND:Resensitize-bg.png;
#LYRICSPATH:;
#CDTITLE:HTID 3.png;
#MUSIC:Resensitize.mp3;
#OFFSET:-5.668;
#SAMPLESTART:52.830;
#SAMPLELENGTH:12.000;
#SELECTABLE:YES;
#BPMS:0.000=170.400,64.000=85.205,66.000=42.603,67.000=85.205,99.000=170.398;
#STOPS:;
#BGCHANGES:;

//---------------dance-single - ----------------
#NOTES:
     dance-single:
     :
     Hard:
     8:
     0.602,0.707,0.487,0.210,0.148: // measure 1
1020
1030
2001
3100
,  // measure 2
0202
0000
0303
0100
0010
0100
0010
0000
,  // measure 3
2001
3100
0012
0103
,  // measure 4
0220
0000
0330
0001
1000
0100
1000
0010
,  // measure 5
0200
0310
1010
0101
,  // measure 6
2002
0000
3003
0001
0100
1000
0001
0000
,  // measure 7
0200
0310
0002
0013
,  // measure 8
0220
0000
0330
0001
0100
1000
0001
0010
,  // measure 9
0100
0001
1010
0000
0001
0000
0100
1000
,  // measure 10
0001
0000
0001
0100
1000
0010
1000
0000
,  // measure 11
0010
1000
0010
0000
0010
0100
0001
0100
,  // measure 12
0010
0000
0001
0100
1000
0001
0010
0100
,  // measure 13
0010
0100
1010
0000
0010
1000
0100
1000
,  // measure 14
0010
0000
0010
0100
0001
0100
0010
0000
,  // measure 15
0101
0010
0100
0001
0001
1000
0010
0100
,  // measure 16
0001
0000
0100
1000
0010
0100
0010
1000
,  // measure 17
0002
0000
0000
0000
0000
0000
0000
0000
2000
0000
0000
3003
0000
1000
0000
0010
,  // measure 18
0000
0010
1000
0000
0000
1000
0000
0010
0000
0100
0010
0000
0000
1000
0000
0001
,  // measure 19
0000
1000
0000
0002
0000
0000
0000
0000
1003
0000
0010
0000
0000
1000
0000
1001
,  // measure 20
0000
1000
0010
0000
0000
1000
0000
0001
0000
0100
0010
0000
0000
0100
0000
0100
,  // measure 21
0000
1000
0000
0002
0000
0100
0000
0000
2003
0000
3010
0000
0000
1000
0000
0001
,  // measure 22
0000
0100
0001
0000
0000
0001
0000
1000
0000
0010
0001
0000
0001
0000
0100
0000
,  // measure 23
1000
0000
0010
0000
1000
0000
0001
0000
0100
0000
1000
0000
0010
1000
0010
0000
,  // measure 24
1010
0000
1010
0000
0100
0001
0100
0000
0101
0000
0101
0000
1001
0000
1001
0000
,  // measure 25
0110
0000
0110
0000
1001
0000
0100
1000
0100
1000
0100
0000
0110
0000
0000
0000
,  // measure 26
1001
0000
0110
0000
1001
0000
0001
0010
,  // measure 27
0100
1000
0010
0100
0001
0000
1010
0000
,  // measure 28
0101
0000
1010
0000
0101
0000
0001
0010
,  // measure 29
0100
1000
0010
0100
0001
0000
0011
0000
,  // measure 30
0011
0000
0110
0000
0110
0000
0001
0100
,  // measure 31
0010
1000
0100
1000
0100
0000
0100
1000
,  // measure 32
0100
0000
0001
0010
0001
0000
0001
1000
,  // measure 33
0100
0001
1000
0100
0010
0100
0011
0000
,  // measure 34
1001
0000
0110
0000
0110
0000
1000
0100
,  // measure 35
1000
0100
0010
0001
0100
0000
0110
0000
,  // measure 36
0110
0000
1001
0000
1001
0000
1000
0100
,  // measure 37
0010
0001
0100
0010
1000
0000
1000
0100
,  // measure 38
0010
0000
0001
0100
0010
0000
0001
0100
,  // measure 39
0010
0001
1000
0010
0100
0010
1000
0100
,  // measure 40
0010
0100
1000
0001
0100
0010
1000
0000
,  // measure 41
1000
0001
0010
0001
0010
0000
0100
1000
,  // measure 42
0100
1000
0100
1000
0010
0000
0010
0100
,  // measure 43
0001
0100
0010
0100
0010
0000
0010
0001
,  // measure 44
0100
0010
1000
0100
0010
0000
0010
0001
,  // measure 45
1000
0100
0010
0001
0100
0000
0100
0010
,  // measure 46
1000
0001
0010
0100
0010
0000
0010
0001
,  // measure 47
1000
0100
0010
0001
1000
0000
1000
0100
,  // measure 48
1000
0010
0001
0100
0010
0000
0010
0001
,  // measure 49
1000
0010
0100
0001
1000
0000
0010
1000
,  // measure 50
0100
0001
1000
0010
1010
0000
1000
0010
,  // measure 51
0001
0100
0010
1000
0101
0000
0010
0001
,  // measure 52
1000
0100
0010
1000
0110
0000
1000
0010
,  // measure 53
0100
0010
0001
0100
0101
0000
0010
0001
,  // measure 54
1000
0010
0100
1000
1010
0000
1000
0100
,  // measure 55
0010
1000
0001
0100
0101
0000
0010
0100
,  // measure 56
1000
0100
0010
1000
0110
0000
0100
0001
,  // measure 57
1000
0010
0001
1000
0010
0000
2002
0000
,  // measure 58
3003
0000
0000
0000
;

//---------------dance-single - ----------------
#NOTES:
     dance-single:
     :
     Medium:
     6:
     0.472,0.462,0.305,0.200,0.086: // measure 1
1000
0010
1000
0010
,  // measure 2
1010
0000
0000
0010
1000
0010
1000
0000
,  // measure 3
0000
0100
0001
0100
,  // measure 4
0101
0000
0000
0001
1000
0001
1000
0000
,  // measure 5
0010
0100
0010
0100
,  // measure 6
0110
0000
0000
0010
0100
0010
0100
0000
,  // measure 7
0001
1000
0010
0100
,  // measure 8
0110
0000
0000
0001
1000
0010
0100
0001
,  // measure 9
0010
0001
0001
0001
,  // measure 10
1001
0000
0000
0100
1000
0100
1000
0000
,  // measure 11
0010
0100
0100
0100
,  // measure 12
1001
0000
0000
0001
1000
0001
1000
0000
,  // measure 13
0001
0010
0010
0010
,  // measure 14
1100
0000
0000
0010
1000
0010
1000
0000
,  // measure 15
0001
0010
0010
0100
,  // measure 16
1100
0000
0001
1000
0010
0100
0001
1000
,  // measure 17
0002
0000
0000
0000
0000
0000
0000
0000
0200
0000
0000
0000
0303
0010
0000
0100
,  // measure 18
0000
0100
0010
0000
0000
0010
0000
0100
0000
1000
0100
0000
0000
0000
0001
0000
,  // measure 19
1000
0000
0100
0000
2000
0000
0000
0000
0010
0000
0000
0000
3000
0100
0000
0010
,  // measure 20
0000
0100
0001
0000
0000
0010
0000
1000
0000
0100
1000
0000
0000
0000
0001
0000
,  // measure 21
0010
0000
0100
0000
0001
0000
0000
0000
1000
0000
0010
0000
0000
0001
0000
0001
,  // measure 22
0000
1000
0100
0000
0000
0010
0000
0010
0000
0100
0010
0000
0001
0000
1000
0000
,  // measure 23
0010
0100
0001
0000
0010
0010
0100
0010
,  // measure 24
0000
1000
0001
1001
0000
0000
0010
0000
,  // measure 25
0010
0000
0010
0010
0010
0010
1010
0000
,  // measure 26
0000
1000
1000
0000
1000
0000
0001
1000
,  // measure 27
0001
0000
0001
1000
0001
0000
0001
0000
,  // measure 28
0001
0000
0001
0000
0001
0000
0100
0010
,  // measure 29
0100
0000
0010
0100
0010
0000
0010
0000
,  // measure 30
0110
0000
0010
0000
0110
0000
0010
0100
,  // measure 31
0010
0000
0010
0100
0010
0000
0002
0000
,  // measure 32
1003
2000
3001
1001
,  // measure 33
0010
0100
0001
1000
0100
0000
0002
0000
,  // measure 34
0103
0000
0200
0000
1300
0000
0010
0100
,  // measure 35
0010
0000
0001
0100
0001
0000
0020
0000
,  // measure 36
0130
0000
0200
0000
0310
0000
0001
1000
,  // measure 37
0001
0000
0100
1000
0010
1000
0010
0000
,  // measure 38
2010
3010
2010
3001
,  // measure 39
0201
0000
0301
0000
0201
0000
0301
0010
,  // measure 40
0001
0000
0100
1000
0100
0000
0010
0100
,  // measure 41
0010
0000
0001
1000
0001
1000
0001
0000
,  // measure 42
0001
0001
0001
1001
,  // measure 43
1001
1001
1001
1000
,  // measure 44
1000
1010
1010
0010
,  // measure 45
0010
0110
0110
0100
,  // measure 46
0100
0110
0110
0001
,  // measure 47
0001
0101
0101
0100
,  // measure 48
0010
0100
0110
0001
,  // measure 49
1000
0000
0001
0000
1001
0000
0001
1000
,  // measure 50
0001
0000
0010
1000
0010
0000
0001
0100
,  // measure 51
0001
0000
0010
1000
0100
0000
0100
1000
,  // measure 52
0010
0000
0010
0100
0001
0000
0001
0100
,  // measure 53
1000
0000
0001
0010
0100
0000
0001
1000
,  // measure 54
0020
0000
0130
0001
0200
0000
0310
1000
,  // measure 55
0002
0000
0013
0100
0002
0000
0103
1000
,  // measure 56
0200
0000
0301
0010
0200
0000
0301
0010
,  // measure 57
1000
0100
1000
0001
0010
0000
2002
0000
,  // measure 58
3003
0000
0000
0000
;

//---------------dance-single - ----------------
#NOTES:
     dance-single:
     :
     Easy:
     4:
     0.349,0.353,0.200,0.134,0.000: // measure 1
0010
1000
0100
0001
,  // measure 2
1001
0000
0010
0100
,  // measure 3
0001
1000
0001
1000
,  // measure 4
1001
0000
0010
0100
,  // measure 5
0001
1000
0001
0010
,  // measure 6
0011
0000
0001
0001
,  // measure 7
0100
1000
0010
1000
,  // measure 8
1010
0000
0001
0100
,  // measure 9
0010
0100
0001
1000
,  // measure 10
0110
0000
0001
1000
,  // measure 11
0001
0010
0100
1000
,  // measure 12
0011
0000
0001
0100
,  // measure 13
1000
0100
0010
0001
,  // measure 14
1100
0000
0001
0010
,  // measure 15
0010
0100
0010
0100
,  // measure 16
1001
0000
0001
1000
,  // measure 17
2000
0000
0001
3001
,  // measure 18
0001
1000
0010
0000
0100
1000
0001
0000
,  // measure 19
0001
2000
3000
0010
,  // measure 20
0010
0010
1000
0000
0001
0000
0020
0000
,  // measure 21
0130
0000
0110
0000
0000
0000
0000
0001
,  // measure 22
0000
1000
0010
0000
0000
0001
0100
0000
,  // measure 23
0100
0000
0010
0000
0001
1000
0001
1000
,  // measure 24
0000
0010
0100
0010
0000
0000
0020
0000
,  // measure 25
0130
0000
1001
0000
0001
1000
0002
0000
,  // measure 26
1000
1000
1003
2000
,  // measure 27
0010
0010
3010
0020
,  // measure 28
0100
0100
0130
0200
,  // measure 29
0010
0010
0310
0001
,  // measure 30
1001
1000
1001
0001
,  // measure 31
1001
0010
0100
0010
,  // measure 32
1000
0001
0100
0020
,  // measure 33
0000
0100
0130
0002
,  // measure 34
0100
0100
0100
0023
,  // measure 35
1000
0100
1030
0200
,  // measure 36
0010
0010
0310
0002
,  // measure 37
0010
0100
0013
1000
,  // measure 38
0001
0001
1000
1000
,  // measure 39
0001
0001
1000
1010
,  // measure 40
1010
0101
0101
1001
,  // measure 41
0000
0010
1000
1000
,  // measure 42
1000
1000
1000
0001
,  // measure 43
0001
0001
0001
0100
,  // measure 44
0100
0100
0100
0010
,  // measure 45
0010
0010
0010
0100
,  // measure 46
0001
0100
0001
1000
,  // measure 47
0100
1000
0100
1000
,  // measure 48
0010
1000
0010
0100
,  // measure 49
0001
0000
0100
0000
0001
0000
0000
1000
,  // measure 50
0000
0010
0000
1000
0000
0010
0000
1000
,  // measure 51
0000
0001
0000
0100
0000
0010
0000
1000
,  // measure 52
0000
0010
0000
1000
0000
0001
0000
0100
,  // measure 53
0000
0010
0000
0100
0000
0110
0000
0001
,  // measure 54
0000
1000
0000
0001
0000
0011
0000
0001
,  // measure 55
0000
1000
0000
0100
0000
1100
0000
0100
,  // measure 56
0000
1000
0000
0010
0000
0100
0000
0001
,  // measure 57
0000
1000
0000
0010
0000
0100
0002
0000
,  // measure 58
0003
0000
0000
0000
;
