#TITLE:Red Light and Sex;
#SUBTITLE:;
#ARTIST:Mega NRG Man;
#TITLETRANSLIT:;
#SUBTITLETRANSLIT:;
#ARTISTTRANSLIT:;
#CREDIT:;
#BANNER:Red Light and Sex-bn.png;
#BACKGROUND:Red Light and Sex-bg.png;
#LYRICSPATH:;
#CDTITLE:cdtitle.png;
#MUSIC:Red Light and Sex.mp3;
#OFFSET:-6.299;
#SAMPLESTART:73.830;
#SAMPLELENGTH:12.000;
#SELECTABLE:YES;
#BPMS:0.000=155.000;
#STOPS:76.000=0.097
,76.250=0.097
,76.500=0.097
,76.750=0.097
,77.000=0.097
,77.250=0.097
,77.500=0.097
,77.750=0.097
,302.000=0.774
;
#BGCHANGES:;

//---------------dance-single - ----------------
#NOTES:
     dance-single:
     :
     Challenge:
     10:
     0.664,0.817,0.526,0.580,0.290: // measure 1
2000
0000
0000
3000
,  // measure 2
0020
0000
0000
0030
,  // measure 3
0200
0000
0000
0300
,  // measure 4
0002
0000
0000
0003
,  // measure 5
0010
0100
1000
0000
0100
0010
0001
0000
,  // measure 6
0100
0001
1000
0000
0001
1000
0010
0000
,  // measure 7
2000
3010
0200
0301
,  // measure 8
0001
1000
0001
1000
0010
1000
0010
0000
,  // measure 9
0010
0100
0110
0000
0001
1000
1001
0000
,  // measure 10
0010
0001
0011
0000
0100
0010
0110
0000
,  // measure 11
0100
0001
1100
0000
1000
0001
1001
0000
,  // measure 12
1010
0101
0110
1001
,  // measure 13
2002
0000
0000
3003
,  // measure 14
0000
0101
0000
0101
0000
0101
0000
0202
,  // measure 15
0000
0000
0303
0000
0000
0002
0000
0023
,  // measure 16
0000
0032
0000
0203
0000
0300
0010
0000
,  // measure 17
2002
0000
0000
3003
,  // measure 18
0000
1010
0000
1010
0000
1010
0000
1010
,  // measure 19
0000
0000
0000
0001
0100
0010
0100
0000
,  // measure 20
0001
0001
0001
0001
0001
0001
0001
0001
0200
0000
0000
0010
0000
0000
0310
0000
,  // measure 21
2000
0000
0000
0001
0000
0000
3001
0000
0020
0000
0000
0100
0000
0000
0130
0000
,  // measure 22
2000
0000
0000
0001
0000
0000
3001
0000
0100
0010
0100
0010
1000
0001
1000
0001
,  // measure 23
0100
0001
0100
0001
1000
0010
1000
0010
0100
0000
0010
1000
0010
0000
0100
0001
,  // measure 24
0100
0000
0001
1000
0100
0010
0001
1000
0002
0000
0000
1000
0000
0000
1003
0000
,  // measure 25
0201
0000
0000
0001
0000
0000
0301
0000
0020
0000
0000
0100
0000
0000
0130
0000
,  // measure 26
2001
0000
0000
0001
0000
0000
3001
0000
0010
0001
0010
0001
0010
0100
0010
0100
,  // measure 27
1000
0100
1000
0010
1000
0010
1000
0000
0010
0000
0100
0010
0100
0000
0001
1000
,  // measure 28
0001
0000
0000
0000
0000
0000
0000
0000
0000
0000
0000
0000
0000
0000
0000
0000
0000
0000
0000
0000
0000
0000
0000
0000
1000
0000
0000
0000
0000
0000
0000
0000
0000
0000
0000
0000
0001
0000
0000
0000
0000
0000
0000
0000
0000
0000
0000
0000
1000
0000
0000
0000
0000
0000
0000
0000
0000
0000
0000
0000
0000
0000
0000
0000
0000
0000
0000
0000
0000
0000
0000
0000
0000
0000
0000
0000
0000
0000
0000
0000
0000
0000
0000
0000
0000
0000
0000
0000
0000
0000
0000
0000
0000
0000
0000
0000
0020
0030
0000
0000
0000
0000
0000
0000
0000
0000
0000
0000
0000
0000
0000
0000
0000
0000
0000
0000
0000
0000
0000
0000
0100
0000
0000
0000
0000
0000
0000
0000
0000
0000
0000
0000
0000
0000
0000
0000
0000
0000
0000
0000
0000
0000
0000
0000
0100
0000
0000
0000
0000
0000
0000
0000
0000
0000
0000
0000
0000
0000
0000
0000
0000
0000
0000
0000
0000
0000
0000
0000
0010
0000
0000
0000
0000
0000
0000
0000
0000
0000
0000
0000
0000
0000
0000
0000
0000
0000
0000
0000
0000
0000
0000
0000
,  // measure 29
0000
0110
0000
1001
0000
2010
0000
3001
,  // measure 30
0000
0001
1000
0010
0100
0001
0010
0002
,  // measure 31
0000
1000
0000
0103
0000
0010
0000
0110
,  // measure 32
0000
1001
0000
0000
0001
0010
0001
0010
,  // measure 33
0000
1100
0000
0011
0000
2001
0000
0001
,  // measure 34
0000
3001
0100
0010
1000
0002
0000
0023
,  // measure 35
0000
0130
0000
0110
0000
1001
0000
0110
,  // measure 36
0000
1001
0000
0000
2000
0000
0010
3010
,  // measure 37
0000
0100
0010
1000
0010
0100
0001
0100
,  // measure 38
0010
0000
1000
0000
0001
0000
0000
0000
2002
0000
0000
3003
0000
0000
0220
0000
,  // measure 39
0000
0330
0001
0000
1000
0000
0010
0000
1000
0000
0001
0000
0100
0000
0010
0000
,  // measure 40
1000
0001
1000
0000
0001
0010
0100
0010
,  // measure 41
0000
0011
0000
1100
0000
1001
0000
0110
,  // measure 42
0000
1001
0000
0000
0002
0000
1003
0020
,  // measure 43
0000
0000
0130
0000
0000
0000
0010
0000
1000
0000
0001
0000
1000
0010
1000
0010
,  // measure 44
1000
0000
0001
0000
0001
0000
0001
0000
0000
0000
1000
0010
1000
0010
1000
0000
,  // measure 45
0000
0010
1000
0010
0000
2020
3030
0202
,  // measure 46
0303
0010
0100
0020
0000
0100
0130
0100
,  // measure 47
0010
0100
0000
0110
0000
1001
0000
0011
,  // measure 48
0000
0000
0001
0000
0001
0000
0001
0000
0000
0000
1000
0100
1000
0100
1000
0000
,  // measure 49
0000
0010
0010
0010
0000
0220
0330
2002
,  // measure 50
3003
0001
0001
0001
0000
0010
0100
0010
,  // measure 51
0100
0010
0000
0100
2000
0000
3020
0000
,  // measure 52
1030
0000
0001
0000
0001
0000
1001
0000
0000
0000
0001
0100
0001
0100
0001
0000
,  // measure 53
0000
0100
0001
0200
0000
0310
0000
0110
,  // measure 54
0000
0100
0010
0200
0000
0010
0310
0010
,  // measure 55
0100
0010
0000
0110
0000
1001
0000
1100
,  // measure 56
0000
0000
1000
0000
1000
0000
1010
0000
0000
0000
0001
0010
0001
0010
0001
0000
,  // measure 57
0000
0100
0100
0100
0000
0220
0330
2002
,  // measure 58
3003
0001
0001
0001
0000
0100
0010
0100
,  // measure 59
0010
0100
0000
0020
0000
0130
0002
0000
,  // measure 60
1003
0010
0010
0210
0000
0010
0000
0010
,  // measure 61
0000
0020
0000
0330
0000
1001
0000
0110
,  // measure 62
0000
1001
0000
0001
1000
0000
0020
0000
,  // measure 63
0230
0000
0301
2000
0000
0000
3020
0000
,  // measure 64
0130
0001
0100
0020
0000
1030
0100
0010
,  // measure 65
0001
1000
0010
0100
0001
0010
0100
1000
,  // measure 66
0010
0100
0001
0010
0002
0000
2003
0000
,  // measure 67
3002
1003
0011
1100
,  // measure 68
0110
0000
0000
0000
1001
0000
0000
0000
0020
0000
0000
0100
0000
0000
0130
0000
,  // measure 69
0002
0000
0000
1000
0000
0000
1003
0000
0200
0000
0000
0010
0000
0000
0310
0000
,  // measure 70
0002
0000
0000
1000
0000
0000
1003
0000
0010
0100
0010
0100
0001
1000
0001
1000
,  // measure 71
0010
1000
0010
1000
0001
0100
0001
0100
0010
0000
0100
0001
0100
0000
0010
1000
,  // measure 72
0010
0000
1000
0001
0010
0100
1000
0001
2001
0000
0000
0001
0000
0000
3001
0000
,  // measure 73
1020
0000
0000
1000
0000
0000
1030
0000
0210
0000
0000
0010
0000
0000
0310
0000
,  // measure 74
1002
0000
0000
1000
0000
0000
1003
0000
0100
1000
0100
1000
0100
0010
0100
0010
,  // measure 75
0001
0010
0001
0100
0001
0100
0001
0000
0100
0000
0010
0100
0010
0000
1000
0001
,  // measure 76
1000
0001
0001
0002
0003
0000
0000
0000
;

//---------------dance-single - ----------------
#NOTES:
     dance-single:
     :
     Hard:
     7:
     0.547,0.525,0.394,0.611,0.093: // measure 1
0020
0000
0000
0030
,  // measure 2
0200
0000
0000
0300
,  // measure 3
0002
0000
0000
0003
,  // measure 4
2000
0000
0000
3000
,  // measure 5
0010
1000
0010
0000
0100
0001
0100
0000
,  // measure 6
0010
0100
0010
0000
1000
0001
0100
0000
,  // measure 7
0002
2003
3020
0230
,  // measure 8
0302
2003
3002
0013
,  // measure 9
0100
1000
0200
0000
0310
0100
2000
0000
,  // measure 10
3100
0010
0002
0000
0103
0010
2000
0000
,  // measure 11
3001
0010
0200
0000
0310
0001
0020
0000
,  // measure 12
0032
1003
0011
1100
,  // measure 13
2002
0000
0000
3003
,  // measure 14
0000
0001
0000
1000
0000
0010
0000
2002
,  // measure 15
0000
0000
0000
3000
0000
1000
0000
1000
,  // measure 16
0000
0010
0000
1003
0000
0000
0000
0000
,  // measure 17
2002
0000
0000
0000
0000
0000
0000
3003
,  // measure 18
0000
0010
0000
0010
0000
0010
0000
0220
,  // measure 19
0000
0000
0000
0000
0000
0330
0000
0000
,  // measure 20
2002
0000
0000
0000
0000
0000
3003
0000
0001
0000
0000
0010
0000
0000
0010
0000
,  // measure 21
0100
0000
0000
1000
0000
0000
1000
0000
0010
0000
0000
0100
0000
0000
0100
0000
,  // measure 22
0001
0000
0000
0010
0000
0000
0010
0000
0100
0000
1000
0000
0001
0000
0010
0000
,  // measure 23
0100
1000
0001
1000
0020
0000
2030
0000
,  // measure 24
3001
0000
0010
0000
0100
0000
1000
0000
0002
0000
0000
0010
0000
0000
0013
0000
,  // measure 25
0200
0000
0000
1000
0000
0000
1300
0000
0002
0000
0000
0100
0000
0000
0103
0000
,  // measure 26
0200
0000
0000
0010
0000
0000
0310
0000
1000
0000
0001
0000
0010
0000
0100
0000
,  // measure 27
1000
0001
1000
0000
0110
0000
1001
0000
,  // measure 28
0101
0000
1001
0000
0001
1000
0010
1000
,  // measure 29
0000
1010
0000
2002
0000
3003
0000
0020
,  // measure 30
0000
1030
0001
1000
0001
0010
0100
1000
,  // measure 31
0000
0002
0000
0023
0000
0130
0000
1001
,  // measure 32
0000
0110
0000
0000
0001
1000
0010
1000
,  // measure 33
0000
0110
0000
2002
0000
3003
0000
0200
,  // measure 34
0000
0301
0100
0010
1000
0010
0000
1010
,  // measure 35
0000
1100
0000
0002
0000
1003
0000
1010
,  // measure 36
0000
0101
0000
0000
0002
0000
1000
0000
,  // measure 37
0100
0000
0013
0001
0010
0001
0010
0001
,  // measure 38
0100
0010
0100
0000
0200
0000
0001
0000
,  // measure 39
0010
0000
0301
0100
0010
0100
0010
1000
,  // measure 40
0001
1000
0010
0000
0100
0001
0010
0100
,  // measure 41
0000
0011
0000
1001
0000
0110
0000
1001
,  // measure 42
0000
0110
0000
0000
0020
0000
0100
0100
,  // measure 43
0000
0130
0000
0020
0000
0000
0030
0000
,  // measure 44
0000
0001
0001
2002
0000
3003
0000
0000
,  // measure 45
0000
1000
1000
2010
0000
0010
0000
0010
,  // measure 46
0000
3010
0100
0020
0000
0130
0100
0001
,  // measure 47
0010
0100
0000
0011
0000
1100
0000
1001
,  // measure 48
0000
0010
0010
2020
0000
0000
0000
3030
,  // measure 49
0000
0100
0100
0201
0000
0010
0000
0001
,  // measure 50
0000
0310
1000
0002
0000
1003
1000
1000
,  // measure 51
0010
0100
0000
0010
0200
0000
0302
0000
,  // measure 52
0013
0100
0100
2000
0000
3010
0010
0010
,  // measure 53
0000
1000
1000
2001
0000
0001
0000
0010
,  // measure 54
0000
3100
0100
0110
0000
0001
0001
0001
,  // measure 55
1000
0010
0000
0110
0000
0101
0000
1001
,  // measure 56
0000
0001
0001
2001
0000
0010
0010
3010
,  // measure 57
0000
0100
0100
0102
0000
0010
0000
0100
,  // measure 58
0000
1003
0010
1001
0000
0100
0010
0100
,  // measure 59
0010
1000
0000
0001
0000
1000
0002
0000
,  // measure 60
0103
0000
0000
0000
1001
0000
0000
0000
1000
0000
0000
0100
0000
0000
0100
0000
,  // measure 61
0010
0000
0000
0001
0000
0000
0001
0000
0100
0000
0000
0010
0000
0000
0010
0000
,  // measure 62
1000
0000
0000
0100
0000
0000
0100
0000
0010
0000
0001
0000
1000
0000
0100
0000
,  // measure 63
0010
0001
1000
0001
0200
0000
0302
0000
,  // measure 64
1003
0000
0100
0000
0010
0000
0001
0000
2000
0000
0000
0100
0000
0000
3100
0000
,  // measure 65
0020
0000
0000
0001
0000
0000
0031
0000
2000
0000
0000
0010
0000
0000
3010
0000
,  // measure 66
0020
0000
0000
0100
0000
0000
0130
0000
0002
0000
0000
0000
0203
0000
0000
0000
,  // measure 67
0020
0330
0200
0302
,  // measure 68
1003
0000
0000
0000
1001
0000
0000
0000
1001
0000
0000
0010
0000
0000
0010
0000
,  // measure 69
0101
0000
0000
1000
0000
0000
1000
0000
0110
0000
0000
0001
0000
0000
0001
0000
,  // measure 70
0011
0000
0000
1000
0000
0000
1000
0000
0010
0000
1000
0000
0001
0000
0010
0000
,  // measure 71
0100
1000
0001
1000
0020
0000
2030
0000
,  // measure 72
3001
0000
0010
0000
0100
0000
1000
0000
0110
0000
0000
1000
0000
0000
1000
0000
,  // measure 73
0011
0000
0000
0100
0000
0000
0100
0000
1001
0000
0000
0010
0000
0000
0010
0000
,  // measure 74
1010
0000
0000
0100
0000
0000
0100
0000
0010
0000
1000
0000
0001
0000
1000
0000
,  // measure 75
0010
1000
0001
0100
0002
0000
0023
0000
,  // measure 76
0230
2300
3000
0000
;

//---------------dance-single - ----------------
#NOTES:
     dance-single:
     :
     Medium:
     5:
     0.384,0.438,0.147,0.441,0.000:
0200
0000
0000
0000
,
0302
0000
0000
0000
,
2003
0000
0000
0000
,
3002
0000
0000
0000
,
1003
0010
0100
0001
,
1000
0001
0010
0100
,
1000
1000
0001
0001
,
1000
1001
0001
1001
,
1000
0010
1000
0000
0001
0000
0100
0000
,
0010
0100
0010
0000
0100
0000
0010
0000
,
1000
0001
1000
0000
0010
0000
1000
0000
,
1010
0101
1001
0110
,
2002
0000
0000
3003
,
0000
1000
0000
0010
0000
0100
0000
2002
,
0000
0000
3003
0000
,
0000
0000
0000
0000
,
0220
0000
0000
0330
,
0000
1000
0000
0001
0000
0100
0000
2002
,
0000
0000
3003
0000
,
1000
0001
1000
0010
,
0100
0001
1000
0010
,
1000
0000
0010
0000
1000
0001
1000
0000
,
0010
0100
0010
0000
0200
0000
0320
0000
,
2030
3002
1003
0010
,
0100
0001
1000
0100
,
0010
0000
0001
0000
1000
0010
1000
0000
,
0001
0100
0001
0000
2000
0000
3020
0000
,
0230
0302
0003
0010
,
0100
0010
2002
3003
,
0001
0000
1000
0000
0010
1000
0010
0000
,
0100
0001
1000
0010
,
0100
0000
0010
0000
1000
0001
1000
0000
,
0010
0100
2002
3003
,
0001
0001
1000
1000
,
0001
1000
0010
0100
,
0001
1000
0002
0000
,
1003
0000
0000
0000
0010
1000
0010
0000
,
0100
0001
0200
0000
,
0301
0000
0000
0000
1000
0010
1000
0000
,
0001
0100
0010
1000
,
0001
0100
0010
1000
,
0001
0000
1000
0000
0010
0000
1000
0001
,
0000
1000
0000
2002
0000
0000
3003
0000
,
0000
0010
0010
0020
0000
0030
0000
0000
,
0000
0100
0100
0200
0000
0000
0300
0000
,
0000
0010
1000
0010
0000
0000
0100
0000
,
0001
1000
0010
0100
,
0001
1000
1000
2000
0000
3000
0000
0000
,
0000
0001
0001
0002
0000
0000
0003
0000
,
0000
1000
0010
0100
,
0001
1000
0000
0220
0000
0330
0000
0000
,
0000
0001
0001
0002
0000
0003
0000
0000
,
0000
1000
1000
2000
0000
0000
3000
0000
,
0000
0001
0010
0001
0000
0000
1000
0000
,
0100
0010
0001
1000
,
0100
0010
0010
0020
0000
0030
0000
0000
,
0000
0100
0100
0200
0000
0000
0300
0000
,
0000
0010
0001
1000
,
0100
0010
0000
2002
0000
3003
0000
0000
,
0010
0010
0001
0100
,
0010
1000
0001
0100
,
0001
0000
0100
0000
0001
1000
0001
0000
,
0100
0010
0100
0000
0020
0000
0230
0000
,
0302
2003
3001
0100
,
0010
1000
0001
0010
,
0100
0000
0000
1000
0001
0000
0002
0000
,
1003
0000
0000
1000
0002
0000
0203
0000
,
0320
2030
3001
1000
,
0010
1001
0100
0001
,
1000
0000
0110
0000
0010
0100
0010
0000
,
1000
0001
1000
0000
0002
0000
2003
0000
,
3020
0230
0301
1000
,
0010
1001
0001
0010
,
0100
0000
1001
0000
0001
1000
0001
0000
,
0100
0010
0100
0000
0002
0000
2003
0000
,
3020
0230
0310
0000
;

//---------------dance-single - ----------------
#NOTES:
     dance-single:
     :
     Easy:
     3:
     0.240,0.292,0.031,0.224,0.000:
0020
0000
0000
0000
,
0030
0000
0000
0000
,
0200
0000
0000
0000
,
0300
0000
0000
0000
,
0001
0000
1000
0000
,
0010
0000
0100
0000
,
0001
0000
1000
0000
,
0001
1000
0001
0000
,
0100
0000
0010
0000
,
1000
0000
0001
0000
,
1000
0000
0010
0000
,
0100
0100
0010
0010
,
2000
0000
0000
0000
,
0000
0000
0000
0000
,
3000
0000
0000
0000
,
0010
0000
0100
0000
,
0002
0000
0000
0000
,
0000
0000
0000
0000
,
0003
0000
0000
0000
,
1000
0001
1000
0010
,
0100
0000
1000
0001
,
0100
0000
0001
0001
,
1000
1000
0002
0000
,
2003
0000
3010
0100
,
0010
0000
1000
0001
,
0100
0000
0020
0000
,
0230
0000
0310
0100
,
0010
1000
0001
0000
,
1000
0000
0001
0000
,
1000
0001
1000
0000
,
0010
0000
0100
0010
,
0100
0010
1000
0000
,
0001
0000
1000
0000
,
0001
1000
0020
0030
,
0100
0000
0001
1000
,
0100
0010
0002
0000
,
1003
0000
0001
0001
,
1000
0000
0020
0000
,
0230
0300
0001
0001
,
1000
0000
0001
0000
,
0010
0000
0100
1000
,
0000
0000
0001
1000
,
0001
0010
0200
0000
,
0300
1000
2000
0000
,
3000
0001
0002
0000
,
0003
1000
0010
1000
,
0010
0100
0010
1000
,
0000
0001
0002
0000
,
0003
1000
2000
0000
,
3000
0010
0002
0003
,
2000
3000
0010
1000
,
0001
1000
2000
0000
,
3000
0001
0002
0000
,
0003
1000
0010
0100
,
0001
0100
0001
1000
,
0000
0010
0020
0000
,
0030
0100
0200
0000
,
0300
0010
0200
0300
,
0020
0030
1000
0001
,
1000
0010
0100
0001
,
1000
0000
0010
0100
,
0001
0000
0100
0100
,
0010
0010
0200
0000
,
0320
0000
1030
0001
,
1000
0000
0010
0100
,
0001
0000
2000
0000
,
3002
0000
0103
0010
,
0100
0001
1000
0001
,
1001
0000
0010
0100
,
0110
0000
0100
0000
,
0010
0000
0100
0100
,
0010
0010
1000
0001
,
1001
0000
0001
1000
,
1001
0000
0001
0000
,
1000
0000
0001
0001
,
1000
1000
0010
0000
;
