#TITLE:Pretty Green Eyes;
#SUBTITLE:(Hixxy Remix);
#ARTIST:Ultrabeat;
#TITLETRANSLIT:;
#SUBTITLETRANSLIT:;
#ARTISTTRANSLIT:;
#CREDIT:;
#BANNER:Pretty Green Eyes-bn.PNG;
#BACKGROUND:Pretty Green Eyes-bg.png;
#LYRICSPATH:;
#CDTITLE:cd.png;
#MUSIC:Pretty Green Eyes (Hixxy Remix).mp3;
#OFFSET:-5.666;
#SAMPLESTART:51.504;
#SAMPLELENGTH:12.400;
#SELECTABLE:YES;
#BPMS:0.000=169.980;
#STOPS:128.000=1.059
,225.000=1.059
;
#BGCHANGES:;

//---------------dance-single - ----------------
#NOTES:
     dance-single:
     :
     Hard:
     9:
     0.641,0.591,0.318,0.281,0.337: // measure 1
0010
1000
0000
1000
0001
0000
1000
0010
0000
0000
0100
0000
0001
0000
1000
0000
,  // measure 2
0010
0100
0000
1000
0100
0000
1000
0100
0000
0000
0001
0000
0010
0000
0100
0000
,  // measure 3
0001
0100
0000
0001
0100
0000
0010
0100
0000
0000
1000
0000
0100
0000
1000
0000
,  // measure 4
0010
1000
0000
0010
1000
0000
0100
0010
0000
0000
1000
0000
0010
0000
0100
0000
,  // measure 5
0010
0100
0000
0010
0100
0000
0001
1000
0000
0000
0100
0000
1000
0000
0010
0000
,  // measure 6
0100
0001
0000
0100
0001
0000
0100
0010
0000
0000
0010
0000
1000
0000
0100
0000
,  // measure 7
1000
0001
0000
0010
0001
0000
0010
1000
0000
0000
0100
0000
1000
0000
0010
0000
,  // measure 8
0100
1000
0000
0100
1000
0000
0010
0100
0000
0000
1000
0000
0100
0000
0001
0000
,  // measure 9
1000
0010
0000
0100
1000
0000
0010
1000
0000
0000
1000
0000
0100
0000
1000
0000
,  // measure 10
0001
1000
0000
0001
1000
0000
0001
0010
0000
0000
0010
0000
1000
0000
0100
0000
,  // measure 11
0010
1000
0000
0010
1000
0000
0100
0001
0000
0000
1000
0000
0100
0000
0010
0000
,  // measure 12
0100
1000
0000
0100
1000
0000
0100
0001
0000
0000
1000
0000
0100
0000
0010
0000
,  // measure 13
0100
0001
0000
0100
0001
0000
0100
1000
0000
0000
0010
0000
0010
0000
1000
0000
,  // measure 14
0001
0010
0000
0001
0010
0000
0001
1000
0000
0000
0010
0000
0100
0000
0001
0000
,  // measure 15
1000
0010
0000
1000
0010
0000
1000
0001
0000
0000
0100
0000
1000
0000
0100
0000
,  // measure 16
0010
1000
0000
0010
0100
0000
0010
0100
0000
0000
0100
0000
1000
0000
0100
0000
,  // measure 17
0001
0010
1000
0010
1000
0000
0100
1000
,  // measure 18
0000
0011
1010
0110
,  // measure 19
0100
1000
0100
0001
0010
0000
0100
0010
,  // measure 20
0000
0011
1100
0110
,  // measure 21
0001
0100
1000
0001
0010
0000
0100
0010
,  // measure 22
0000
0101
1010
1001
,  // measure 23
0010
0100
0010
0100
0010
0000
0100
1000
,  // measure 24
0000
0110
1001
0110
,  // measure 25
0100
1000
0001
0010
0100
0000
0010
0100
,  // measure 26
0010
0100
0001
0000
0001
0100
1000
0001
,  // measure 27
0010
1000
0100
0010
1000
0000
0100
1000
,  // measure 28
0000
1010
0101
0011
,  // measure 29
0100
1000
0010
1000
0010
0000
0001
0100
,  // measure 30
1000
0001
0010
0000
0100
0010
0100
0010
,  // measure 31
0100
0001
0100
1000
0001
0000
0001
0010
,  // measure 32
0000
0011
1100
1010
,  // measure 33
1001
0100
1000
0010
,  // measure 34
1000
0100
1000
0000
0001
0000
0001
0100
,  // measure 35
1000
0001
0010
0000
1000
0100
0000
0010
,  // measure 36
0000
0010
0000
1000
0000
0100
1000
0000
,  // measure 37
0100
0001
0100
0000
1000
0000
0001
0000
,  // measure 38
0010
0100
0010
0000
0100
0000
1000
0000
,  // measure 39
0001
0100
1000
0000
0001
0010
0000
1000
,  // measure 40
0000
0100
0000
0100
1000
0000
0001
0000
,  // measure 41
1000
0000
0001
0000
1000
0010
1000
0000
,  // measure 42
0100
1000
0001
0000
0001
0000
0010
1000
,  // measure 43
0010
0000
1000
0000
0100
1000
0000
0101
,  // measure 44
0000
0101
0000
0010
0000
1000
0100
0000
,  // measure 45
1000
0001
0010
0000
1000
0000
0100
0000
,  // measure 46
1000
0001
0010
0000
0100
0000
0010
0000
,  // measure 47
1000
0100
1000
0100
1000
0001
0100
0000
,  // measure 48
1000
0001
0000
0000
0010
0000
0100
0000
,  // measure 49
0110
0000
2002
0000
0003
3020
0000
0000
,  // measure 50
2030
0000
3002
0000
0000
2003
0000
0000
,  // measure 51
3020
0000
2030
0000
0000
3002
0000
0000
,  // measure 52
0103
0000
2020
0000
3030
0220
0000
0330
,  // measure 53
1001
0000
0202
0000
0303
0020
0000
0030
,  // measure 54
1100
0000
0202
0000
0303
0020
0000
0030
,  // measure 55
1000
0000
2200
0000
3300
0002
0000
0003
,  // measure 56
2000
0000
3200
0000
0000
0320
0000
0000
,  // measure 57
1030
1001
2001
3200
,  // measure 58
0320
0000
0000
0000
0130
0000
0000
0000
0001
1000
0000
0001
1000
0000
0001
1000
,  // measure 59
0000
0000
1000
0000
0001
0000
1000
0000
0001
1000
0000
0001
1000
0000
0001
0010
,  // measure 60
0000
0000
0100
0000
0010
0000
1000
0000
0100
1000
0000
0100
1000
0000
0010
1000
,  // measure 61
0000
0000
0001
0000
1000
0000
0001
0000
0010
0001
0000
0010
0001
0000
1000
0100
,  // measure 62
0000
0000
0001
0000
0010
0000
1000
0000
0010
1000
0000
0010
1000
0000
0100
0001
,  // measure 63
0000
0000
1000
0000
0001
0000
0010
0000
1000
0100
0000
1000
0100
0000
1000
0010
,  // measure 64
0000
0000
0010
0000
0001
0000
1000
0000
0001
0100
0000
0010
0100
0000
0010
1000
,  // measure 65
0000
0000
1000
0000
0001
0000
0100
0000
1000
0100
0000
1000
0100
0000
0100
0001
,  // measure 66
0000
0010
0001
0110
2002
0000
0000
0000
,  // measure 67
0000
0000
3003
0000
;

//---------------dance-single - ----------------
#NOTES:
     dance-single:
     :
     Medium:
     7:
     0.468,0.466,0.028,0.168,0.112: // measure 1
1000
0000
0000
0100
0000
0000
1000
0000
0000
0000
0010
0000
1000
0000
0010
0000
,  // measure 2
0100
0000
0000
1000
0000
0000
0001
0000
0000
0000
1000
0000
0010
0000
0001
0000
,  // measure 3
0100
0000
0000
0010
0000
0000
1000
0000
0000
0000
0100
0000
1000
0000
0100
0000
,  // measure 4
0001
0000
0000
1000
0000
0000
0100
0000
0000
0000
0010
0000
1000
0000
0100
0000
,  // measure 5
0010
0000
0000
1000
0000
0000
0001
0000
0000
0000
0100
0000
0010
0000
0001
0000
,  // measure 6
0010
0000
0000
1000
0000
0000
0001
0000
0000
0000
0010
0000
0100
0000
0100
0000
,  // measure 7
0010
0000
0000
1000
0000
0000
0100
0000
0000
0000
0001
0000
0100
0000
0010
0000
,  // measure 8
1000
0000
0000
0001
0000
0000
0010
0000
0000
0000
0100
0000
0010
0000
0000
0000
,  // measure 9
0001
0000
0000
0010
0000
0000
0001
0000
0000
0000
0100
0000
0001
0000
0100
0000
,  // measure 10
0010
0000
0000
0001
0000
0000
1000
0000
0000
0000
0001
0000
0100
0000
1000
0000
,  // measure 11
0010
0000
0000
0100
0000
0000
0001
0000
0000
0000
0010
0000
0001
0000
0010
0000
,  // measure 12
1000
0000
0000
0001
0000
0000
0010
0000
0000
0000
0100
0000
0001
0000
0010
0000
,  // measure 13
0100
0000
0000
0001
0000
0000
1000
0000
0000
0000
0010
0000
0100
0000
1000
0000
,  // measure 14
0100
0000
0000
0001
0000
0000
1000
0000
0000
0000
0100
0000
0010
0000
0010
0000
,  // measure 15
0100
0000
0000
0001
0000
0000
0010
0000
0000
0000
1000
0000
0010
0000
0100
0000
,  // measure 16
0001
0000
0000
1000
0000
0000
0100
0000
0000
0000
0010
0000
0100
0000
0000
0000
,  // measure 17
1000
0100
1000
0010
0100
0000
0001
0100
,  // measure 18
0000
1000
0001
0010
,  // measure 19
0100
0010
0100
0010
0100
0000
0001
0100
,  // measure 20
0000
1000
0001
0010
,  // measure 21
1000
0100
1000
0010
1000
0000
0100
1000
,  // measure 22
0000
0001
0010
0100
,  // measure 23
0001
0100
0001
0010
0100
0000
0010
0100
,  // measure 24
0000
0001
0100
1000
,  // measure 25
0001
0010
1000
0010
1000
0000
0100
1000
,  // measure 26
0100
1000
0100
0000
1000
0001
1000
0001
,  // measure 27
1000
0000
0001
1000
0001
0000
0010
0100
,  // measure 28
0000
0100
1000
0001
,  // measure 29
0001
0010
0001
0010
0001
0000
0100
1000
,  // measure 30
0100
1000
0100
0000
0010
1000
0010
0000
,  // measure 31
1000
0100
1000
0100
1000
0000
0010
1000
,  // measure 32
0000
0100
0010
0100
,  // measure 33
1001
1000
0001
0010
,  // measure 34
1000
0100
1000
0000
0001
0000
0010
0000
,  // measure 35
1000
0000
0100
0000
1000
0100
0000
0010
,  // measure 36
0000
0100
0000
1000
0000
0000
0001
0000
,  // measure 37
0010
1000
0100
0000
1000
0000
0001
0000
,  // measure 38
0010
0100
0010
0000
0100
0000
0001
0000
,  // measure 39
0100
1000
0100
0000
0000
0100
0000
0100
,  // measure 40
0000
0100
0000
0000
1000
0000
0001
0000
,  // measure 41
0010
0000
1000
0000
0100
1000
0100
0000
,  // measure 42
0010
0000
0100
0000
0001
0000
0010
1000
,  // measure 43
0100
1000
0100
0000
1000
0100
0000
0010
,  // measure 44
0000
1000
0000
0100
0000
0000
0000
0000
,  // measure 45
1000
0001
0000
0010
0000
1000
0000
0100
,  // measure 46
0000
1000
0000
0001
0000
0000
0010
0000
,  // measure 47
1000
0000
0100
1000
0001
0010
0100
0000
,  // measure 48
0010
1000
0000
0000
0100
0000
0100
0000
,  // measure 49
0100
0000
2000
0000
0000
3002
0000
0000
,  // measure 50
1003
0000
0020
0000
0000
0230
0000
0000
,  // measure 51
1300
0000
0002
0000
0000
0023
0000
0000
,  // measure 52
1030
0000
0200
0000
0000
0320
0000
0000
,  // measure 53
0130
0000
0002
0000
0000
0023
0000
0000
,  // measure 54
0130
0000
2000
0000
0000
3002
0000
0000
,  // measure 55
0013
0000
0200
0000
0000
0302
0000
0000
,  // measure 56
0103
0000
2000
0000
0000
3020
0000
0000
,  // measure 57
0130
1001
1000
0100
,  // measure 58
0010
0000
0000
0000
0001
0000
0000
0000
0001
0000
0000
1000
0000
0000
0001
0000
,  // measure 59
0000
0000
0010
0000
0001
0000
0010
0000
1000
0000
0000
0001
0000
0000
0100
0000
,  // measure 60
0000
0000
0001
0000
0010
0000
0100
0000
1000
0000
0000
0010
0000
0000
0001
0000
,  // measure 61
0000
0000
1000
0000
0001
0000
1000
0000
0100
0000
0000
0001
0000
0000
1000
0000
,  // measure 62
0000
0000
0010
0000
0001
0000
1000
0000
0010
0000
0000
0001
0000
0000
0100
0000
,  // measure 63
0000
0000
1000
0000
0010
0000
0100
0000
0010
0000
0000
0001
0000
0000
0100
0000
,  // measure 64
0000
0000
0010
0000
1000
0000
1000
0000
0010
0000
0000
0001
0000
0000
1000
0000
,  // measure 65
0000
0000
0100
0000
1000
0000
0010
0000
0001
0000
0000
0100
0000
0000
0010
0000
,  // measure 66
0000
1000
0010
0000
2002
0000
0000
0000
,  // measure 67
0000
0000
3003
0000
;

//---------------dance-single - ----------------
#NOTES:
     dance-single:
     :
     Easy:
     4:
     0.370,0.435,0.365,0.196,0.000: // measure 1
1000
0100
1001
0000
,  // measure 2
0010
1000
0110
0000
,  // measure 3
1000
0001
0110
0000
,  // measure 4
1000
0100
1001
0000
,  // measure 5
0010
0100
1010
0000
,  // measure 6
0001
0010
1100
0000
,  // measure 7
1000
0100
0011
0000
,  // measure 8
1000
0100
0011
0000
,  // measure 9
0001
0010
1100
0000
,  // measure 10
1000
0100
0101
0000
,  // measure 11
0010
0100
1010
0000
,  // measure 12
0001
0010
1100
0000
,  // measure 13
1000
0100
1001
0000
,  // measure 14
0001
0010
0101
0000
,  // measure 15
1000
0100
0011
0000
,  // measure 16
1000
0100
0011
1000
,  // measure 17
0100
0000
1000
0000
0001
0000
0000
0010
,  // measure 18
0000
1000
0100
0001
,  // measure 19
1000
0000
0010
0000
0100
0000
0000
1000
,  // measure 20
0000
1000
0100
0010
,  // measure 21
0001
0000
1000
0000
0010
0000
0000
1000
,  // measure 22
0000
0001
0001
0001
,  // measure 23
1000
0000
0001
0000
0010
0000
0000
0100
,  // measure 24
0000
0100
0100
0100
,  // measure 25
1000
0001
0011
1000
,  // measure 26
0100
1010
0001
0010
,  // measure 27
1000
0000
0100
0000
0001
0000
0000
0100
,  // measure 28
0000
0001
0001
0001
,  // measure 29
1000
0100
1001
0010
,  // measure 30
0100
1001
0010
0100
,  // measure 31
0100
0000
1000
0000
0100
0000
0000
1000
,  // measure 32
0000
0001
0001
0001
,  // measure 33
1001
1000
0100
1000
,  // measure 34
0001
0010
0100
0010
,  // measure 35
1000
0000
0100
0000
0000
1000
0000
0010
,  // measure 36
0000
1000
0000
0000
0000
0000
1000
0000
,  // measure 37
0001
0010
0100
0100
,  // measure 38
1000
0001
0010
0100
,  // measure 39
0010
0000
1010
0000
0000
1000
0000
0100
,  // measure 40
0000
0010
0000
0000
0000
0000
1100
0000
,  // measure 41
0000
0010
1000
0100
,  // measure 42
1000
0001
0010
1000
,  // measure 43
0100
0000
1001
0000
0000
0100
0000
0010
,  // measure 44
0000
1000
0000
1000
0000
0000
0001
0000
,  // measure 45
0010
1000
0100
1000
,  // measure 46
0001
0010
0100
0010
,  // measure 47
0100
1001
0000
0110
,  // measure 48
0000
1001
0000
0011
,  // measure 49
1100
0000
0002
0000
0000
0023
0000
0000
,  // measure 50
0031
0000
0200
0000
0000
2300
0000
0000
,  // measure 51
3001
0000
0020
0000
0000
0230
0000
0000
,  // measure 52
0301
0000
2000
0000
0000
3200
0000
0000
,  // measure 53
1300
0000
0020
0000
0000
0230
0000
0000
,  // measure 54
1300
0000
0002
0000
0000
0023
0000
0000
,  // measure 55
0130
0000
2000
0000
0000
3020
0000
0000
,  // measure 56
1030
0000
0002
0000
0000
0203
0000
0000
,  // measure 57
1300
0011
0020
0032
,  // measure 58
0203
1300
1000
0001
,  // measure 59
1100
0000
0010
0100
,  // measure 60
1001
0000
1000
0001
,  // measure 61
1010
0000
0010
0100
,  // measure 62
1010
0000
0100
0010
,  // measure 63
1001
0000
0001
0010
,  // measure 64
0011
0000
0100
1000
,  // measure 65
1010
0000
0100
1000
,  // measure 66
1001
0000
2002
0000
,  // measure 67
0000
0000
3003
0000
;
