#TITLE:Power;
#SUBTITLE:;
#ARTIST:Go 2;
#TITLETRANSLIT:;
#SUBTITLETRANSLIT:;
#ARTISTTRANSLIT:;
#CREDIT:;
#BANNER:Power-bn.png;
#BACKGROUND:Power-bg.png;
#LYRICSPATH:;
#CDTITLE:Super Eurobeat 171.png;
#MUSIC:Power.mp3;
#OFFSET:-7.694;
#SAMPLESTART:56.590;
#SAMPLELENGTH:12.000;
#SELECTABLE:YES;
#BPMS:0.000=157.000;
#STOPS:124.500=0.382
,125.500=0.382
;
#BGCHANGES:;

//---------------dance-single - ----------------
#NOTES:
     dance-single:
     :
     Hard:
     8:
     0.624,0.519,0.483,0.757,0.000: // measure 1
0002
1003
0001
1000
,  // measure 2
2000
0000
3001
0000
0100
0001
0100
0010
,  // measure 3
0200
0000
0310
0000
0010
1000
0010
0000
,  // measure 4
2000
3002
0203
0320
,  // measure 5
1030
0001
1000
0011
,  // measure 6
0001
0000
0101
0000
1000
0001
1000
0000
,  // measure 7
0020
0000
0130
0000
0001
1000
0001
0000
,  // measure 8
0120
0200
0330
0000
1002
2000
3003
0000
,  // measure 9
2001
0000
3001
0000
2000
0002
3000
1003
,  // measure 10
0001
0100
0010
0100
0001
1000
0001
0000
,  // measure 11
1020
0000
0130
0000
0200
0002
0300
0013
,  // measure 12
0100
1000
0100
0010
0001
0000
0110
0000
,  // measure 13
1002
0000
0103
0000
0200
0020
0300
1030
,  // measure 14
0010
0100
0001
1000
0010
0100
0001
0000
,  // measure 15
1002
0000
0103
0000
0002
0200
0003
0301
,  // measure 16
0000
1000
0000
0220
0000
0000
0330
0000
,  // measure 17
2001
0000
3001
0000
1000
0000
0010
1000
,  // measure 18
0010
0100
0001
0010
0001
0010
0100
1000
,  // measure 19
0001
0010
0001
0100
0010
0100
0001
0000
,  // measure 20
2001
0000
3001
0000
0100
0001
0100
0000
,  // measure 21
2001
0000
3001
0000
0110
0000
0001
0100
,  // measure 22
0010
0100
0001
1000
0100
0010
0001
0100
,  // measure 23
0010
0100
0010
0100
0001
1000
0001
0000
,  // measure 24
1002
0000
0013
0000
0001
0010
0001
0100
,  // measure 25
1001
0000
0100
0010
0110
0000
1000
0001
,  // measure 26
2000
3020
0230
0302
,  // measure 27
1003
0010
1000
0010
1000
0010
1000
0000
,  // measure 28
0100
0001
0100
0001
0100
0001
0100
0010
,  // measure 29
1001
0000
1000
0001
1001
0000
1000
0001
,  // measure 30
0200
0302
2003
3020
,  // measure 31
1030
0001
0100
0010
1000
0001
0100
0000
,  // measure 32
1000
1000
0001
0001
2001
0000
3002
0000
,  // measure 33
0103
0010
1000
0001
0200
0000
0310
0000
,  // measure 34
2002
0000
3003
0000
0001
1000
0001
1000
,  // measure 35
0001
0100
0010
1000
0001
0100
0010
1000
,  // measure 36
0002
1003
1002
2003
,  // measure 37
3010
0100
0001
1000
0020
0000
0130
0000
,  // measure 38
2002
0000
3003
0000
1000
0001
1000
0001
,  // measure 39
1000
0010
0100
0001
1000
2000
0000
3000
,  // measure 40
0001
0002
0000
0003
0102
0000
0203
0000
,  // measure 41
0310
1000
0001
0100
0002
0000
1003
0000
,  // measure 42
0202
0000
0303
0000
0100
0001
0100
0001
,  // measure 43
0100
0010
1000
0100
0010
0001
0010
0001
,  // measure 44
0200
0301
0201
0302
,  // measure 45
0013
0100
1000
0001
0020
0000
0130
0000
,  // measure 46
2002
0000
3003
0000
0001
0100
0001
0010
,  // measure 47
0001
0100
0010
1000
0001
0002
0000
0003
,  // measure 48
1000
2000
0000
3000
1002
0000
1003
0000
,  // measure 49
0002
2000
0003
3001
1000
0010
0100
0010
,  // measure 50
1000
0001
1000
0000
0201
0000
0310
0000
,  // measure 51
0020
2000
0030
3001
0100
0001
0010
0001
,  // measure 52
1000
0110
2001
3010
,  // measure 53
0020
0200
0030
0301
0100
0010
1000
0001
,  // measure 54
0100
0010
1000
0000
2001
0000
3010
0000
,  // measure 55
2000
0020
3000
1030
0000
0001
0000
0110
,  // measure 56
0000
0000
0000
0000
0000
0000
0000
0000
0000
0000
0000
0000
0000
0000
0000
0000
0000
0000
0000
0000
0000
0000
0000
0000
0000
0000
0000
0000
0000
0000
0000
0000
0000
0000
0000
0000
0000
0000
0000
0000
0000
0000
0000
0000
0000
0000
0000
0000
0110
0000
0000
0000
0000
0000
0000
0000
0000
0000
0000
0000
0000
0000
0000
0000
0000
0000
0000
0000
0000
0000
0000
0000
0000
0000
0000
0000
0000
0000
0000
0000
0000
0000
0000
0000
0000
0000
0000
0000
0000
0000
0000
0000
0000
0000
0000
0000
1002
0003
0000
0000
0000
0000
0000
0000
0000
0000
0000
0000
0000
0000
0000
0000
0000
0000
0000
0000
0000
0000
0000
0000
0000
0000
0000
0000
0000
0000
0000
0000
0000
0000
0000
0000
0000
0000
0000
0000
0000
0000
0000
0000
0000
0000
0000
0000
0110
0000
0000
0000
0000
0000
0000
0000
0000
0000
0000
0000
0000
0000
0000
0000
0000
0000
0000
0000
0000
0000
0000
0000
0000
0000
0000
0000
0000
0000
0000
0000
0000
0000
0000
0000
0000
0000
0000
0000
0000
0000
0000
0000
0000
0000
0000
0000
,  // measure 57
0001
0100
0000
0101
0000
0101
0000
0101
,  // measure 58
0000
0010
1000
0010
1000
0000
0110
0000
,  // measure 59
0010
1001
0000
0210
0000
0310
0000
0220
,  // measure 60
0000
0330
0001
1000
1001
0000
0101
0000
,  // measure 61
0100
1001
0000
0110
0000
1001
0000
0110
,  // measure 62
0000
0001
0010
0001
0010
0000
0101
0000
,  // measure 63
0010
1001
0000
1200
0000
1300
0000
2002
,  // measure 64
0000
3003
0000
0000
;

//---------------dance-single - ----------------
#NOTES:
     dance-single:
     :
     Medium:
     6:
     0.413,0.404,0.182,0.191,0.000:
0020
1000
0100
1030
,
0200
0001
0010
0301
,
0002
1000
0100
1003
,
0020
0100
1000
0130
,
0010
0100
0001
1000
,
0100
1000
0100
0000
0010
0100
0010
0000
,
0001
1000
0010
0100
,
0001
0001
0000
0000
1000
1000
0000
0000
,
1001
0000
1000
0000
0010
1000
0000
0010
,
0000
1000
0000
0100
0000
0010
0001
0100
,
0010
0000
1000
0000
0100
1000
0000
0010
,
0000
0100
0000
0110
0000
0000
0001
0000
,
1000
0000
0100
0000
0010
0001
0000
0100
,
0000
0010
0000
1000
0000
0010
0100
0010
,
0100
0000
0001
0000
1000
0010
0000
0100
,
0000
0010
0000
1001
0000
0000
0001
0000
,
1000
0000
0010
0000
1010
0000
0010
1000
,
0010
0100
0001
0010
,
0100
1000
0010
0000
0010
0100
0010
0000
,
2000
0001
0010
3001
,
0010
0000
0100
0000
0001
0000
0001
0010
,
0100
0000
0100
1000
0010
0000
0010
0000
,
0100
0001
0100
0000
0010
0000
1000
0000
,
0200
0010
0001
0310
,
1001
0010
1001
0010
,
1100
0001
0101
0010
,
0010
1000
0010
1000
0010
1000
0000
0000
,
0001
0100
0001
0100
0001
0100
0000
0000
,
0010
0110
0001
0011
,
0100
1100
0010
1000
,
0010
1000
0010
1000
0010
1000
0000
0000
,
0001
0001
1000
1000
0002
0000
1000
0000
,
0103
0000
1000
0010
1000
0000
0010
0000
,
1010
0000
0000
0000
0100
1000
0100
0000
,
0010
0100
0001
0010
,
0100
0110
2001
0010
,
3001
0000
0001
0100
0001
0000
0100
0000
,
0010
0000
0000
0000
0100
1000
0100
1000
,
0100
1000
0100
0000
0010
0020
0000
0030
,
0100
0200
0000
0300
0020
0000
1000
0000
,
0130
0000
0010
0100
0010
0000
0001
0000
,
0011
0000
0100
1000
,
0010
0000
0100
0010
0100
0000
0001
0000
,
2000
3001
0002
1000
,
0013
0000
0100
1000
0100
0000
0010
0000
,
0110
0000
0000
0000
0010
1000
0010
0000
,
0100
1000
0100
0000
0001
0002
0000
0003
,
1000
1000
0000
0000
2002
0000
0000
0000
,
0000
0000
0000
0000
,
0000
3003
0001
1000
,
0010
1000
0100
1000
,
0010
0000
0100
0010
,
1000
0010
0001
0100
,
0010
0100
0010
0000
1000
0000
0001
0000
,
1000
0001
0100
0010
,
2002
3003
0010
1000
,
0100
1000
0000
0010
0000
0100
0000
0001
,
0000
0001
0010
0100
1000
0000
0010
0000
,
0100
0010
0000
1000
0000
0001
0000
2001
,
0000
3001
0010
1000
,
0100
1000
0000
0010
0000
0100
0000
0001
,
0000
0100
0010
1000
0100
0000
0010
0000
,
0001
0100
0000
0010
0000
0010
0000
0220
,
0000
0330
0000
0000
;

//---------------dance-single - ----------------
#NOTES:
     dance-single:
     :
     Easy:
     3:
     0.283,0.316,0.082,0.210,0.000:
1000
0000
0001
0000
,
1000
0001
1000
0001
,
0100
0000
0010
0000
,
0100
0010
0200
0000
,
0310
0000
0100
0000
,
0010
0100
0010
0100
,
0001
0000
1000
0000
,
0220
0330
2002
3003
,
1000
0001
2000
3000
,
0001
1000
0010
0100
,
0001
0010
0200
0300
,
1000
0010
1001
0000
,
0001
1000
0010
0000
,
0100
0010
1000
0001
,
0010
0100
1000
0000
,
0001
1000
0010
0000
,
1000
1000
1000
1000
,
0001
1000
0001
1000
,
0010
0100
0001
0000
,
0010
0100
0110
0000
,
0001
1000
0010
1000
,
0100
0100
0010
0000
,
0001
0010
0100
0000
,
1000
0000
0001
1000
,
0020
0000
0230
0000
,
0320
0000
0230
0000
,
0301
0001
0001
0000
,
1000
1000
1000
0000
,
0002
0000
2003
0000
,
3002
0000
2003
0000
,
3100
0100
0100
0000
,
0010
0100
1001
1000
,
0010
1000
0100
1000
,
0010
0000
0100
0100
,
0100
0100
0010
0010
,
0100
0010
1001
0100
,
1000
0001
0010
0100
,
1000
0000
0001
0001
,
0001
0000
2000
0000
,
3002
0000
1003
0001
,
0100
0001
0010
0001
,
0100
0000
0010
0010
,
0010
0010
0100
0100
,
0010
0100
1001
0010
,
0001
1000
0100
0010
,
0001
0000
1000
1000
,
1000
0000
0002
0000
,
1003
0000
2002
0000
,
0000
0000
0000
0000
,
0000
3003
0000
0000
,
0000
0000
0000
0000
,
0000
0000
1000
0000
,
0001
0000
1000
0001
,
1000
0001
0100
0000
,
0010
0000
0100
0010
,
0200
0000
0301
1000
,
0002
0003
1000
0001
,
0100
0010
1000
0100
,
0020
0030
0001
0100
,
1001
0000
1000
0001
,
0100
0000
0010
0100
,
0001
1000
0100
0010
,
0001
0000
1000
0001
,
0100
0000
0000
0000
;
