#TITLE:Popcorns & Sex;
#SUBTITLE:;
#ARTIST:Queen 26;
#TITLETRANSLIT:;
#SUBTITLETRANSLIT:;
#ARTISTTRANSLIT:;
#CREDIT:;
#BANNER:Popcons & Sex-bn.PNG;
#BACKGROUND:Popcons & Sex-bg.PNG;
#LYRICSPATH:;
#CDTITLE:cd.png;
#MUSIC:Popcorns & Sex.ogg;
#OFFSET:-7.747;
#SAMPLESTART:43.290;
#SAMPLELENGTH:13.380;
#SELECTABLE:YES;
#BPMS:0.000=155.000;
#STOPS:;
#BGCHANGES:;

//---------------dance-single - ----------------
#NOTES:
     dance-single:
     :
     Hard:
     8:
     0.630,0.548,0.715,0.061,0.357: // measure 1
1000
0000
1000
0000
0010
1000
0010
1000
0000
0100
0000
0000
0010
0000
0010
0000
,  // measure 2
0001
0000
0000
0010
0000
0000
1100
0000
0000
1000
0000
0000
0001
0000
0010
0000
,  // measure 3
0100
0000
0100
0000
0010
0100
0010
0100
0000
1000
0000
0000
0100
0000
0100
0000
,  // measure 4
1000
0000
0000
0001
0000
0000
1001
0000
0000
1000
0000
0000
0001
0000
0100
0000
,  // measure 5
0010
0000
0010
0000
1000
0010
1000
0010
0000
1000
0000
0000
0010
0000
0100
0000
,  // measure 6
0010
0000
0000
1000
0000
0000
0101
0000
0000
0100
0000
0000
0001
0000
1000
0000
,  // measure 7
0010
0000
0010
0000
1000
0010
1000
0010
0000
0100
0000
0000
0001
0000
1000
0000
,  // measure 8
0010
0000
0000
1000
0000
0000
1001
0000
0000
0000
0010
0000
1001
0000
0000
0000
,  // measure 9
1000
0000
0000
1000
0000
0000
0101
0000
0000
0000
1000
0000
0010
0000
0100
0000
,  // measure 10
0001
0000
0000
1010
0000
0000
0010
0000
0100
0000
0000
0000
0110
0000
0000
0000
,  // measure 11
0001
0000
0000
0001
0000
0000
1100
0000
0000
0000
0001
0000
1000
0000
0010
0000
,  // measure 12
0100
0000
0000
0010
0000
0000
0101
0000
0000
0000
0001
0000
1000
0000
0010
0000
,  // measure 13
1000
0000
0000
0010
0000
0000
1001
0000
0000
0000
1000
0000
0001
0000
1000
0000
,  // measure 14
0001
0000
0000
0110
0000
0000
0010
0000
0100
0000
0000
0000
0001
0000
0100
0000
,  // measure 15
0001
0000
0000
1000
0000
0000
0110
0000
0000
0000
1000
0000
0001
0000
0100
0000
,  // measure 16
0010
0000
0000
0010
0000
0000
1001
0000
0000
0000
1000
0000
0001
0000
1000
0000
,  // measure 17
0200
0000
1300
0000
0001
1000
0001
0000
,  // measure 18
1000
0010
1000
0001
0100
0001
0010
0000
,  // measure 19
0011
0000
0100
1000
0100
0000
1001
0001
,  // measure 20
0002
0000
1003
1000
0000
0110
0110
0000
,  // measure 21
1001
0000
0100
1000
0010
0100
0001
0001
,  // measure 22
0100
0010
0100
0001
1000
1000
0001
0010
,  // measure 23
2001
0000
3002
0000
0013
0000
0001
0001
,  // measure 24
0002
1003
0110
1001
,  // measure 25
1010
0000
0000
0010
0000
0000
1000
0000
0001
0000
0000
0000
0001
0000
0010
0000
,  // measure 26
0100
0000
0000
1000
0000
0000
0110
0000
1001
0000
0000
0000
0001
0000
1000
0000
,  // measure 27
0010
0000
0000
0110
0000
0000
0100
0000
0001
0000
0000
1001
0000
0000
0100
0000
,  // measure 28
0001
0000
0000
1001
0000
0000
0010
0000
1000
0000
0000
0000
0100
0000
0010
0000
,  // measure 29
1001
0000
0000
1000
0000
0000
0001
0000
0100
0000
0000
0000
0001
0000
0100
0000
,  // measure 30
0010
0000
0000
1000
0000
0000
1010
0000
0101
0000
0000
0000
0100
0000
0001
0000
,  // measure 31
1000
0000
0000
1100
0000
0000
1000
0000
0001
0000
0000
0000
1000
0000
1001
0000
,  // measure 32
0000
0100
0110
0000
0001
1000
0010
0100
,  // measure 33
0001
0000
0001
0000
0100
0001
0100
0001
0000
0010
0000
0000
0100
0000
0100
0000
,  // measure 34
1000
0000
0000
0100
0000
0000
0011
0000
0000
0001
0000
0000
1000
0000
0100
0000
,  // measure 35
0010
0000
0010
0000
0100
0010
0100
0010
0000
0001
0000
0000
0010
0000
0010
0000
,  // measure 36
0001
0000
0000
1000
0000
0000
1001
0000
0000
0001
0000
0000
1000
0000
0010
0000
,  // measure 37
0100
0000
0100
0000
0001
0100
0001
0100
0000
0001
0000
0000
0100
0000
0010
0000
,  // measure 38
0100
0000
0000
0001
0000
0000
1010
0000
0000
0010
0000
0000
1000
0000
0001
0000
,  // measure 39
0100
0000
0100
0000
0001
0100
0001
0100
0000
0010
0000
0000
1000
0000
0001
0000
,  // measure 40
0100
0000
0000
0001
0000
0000
1001
0000
0000
0000
0100
0000
1001
0000
0000
0000
,  // measure 41
0101
0000
0000
0100
0000
0000
0001
0000
1000
0000
0000
0000
1000
0000
0100
0000
,  // measure 42
0010
0000
0000
0001
0000
0000
0110
0000
1001
0000
0000
0000
1000
0000
0001
0000
,  // measure 43
0100
0000
0000
0110
0000
0000
0010
0000
1000
0000
0000
1001
0000
0000
0010
0000
,  // measure 44
1000
0000
0000
1001
0000
0000
0100
0000
0001
0000
0000
0000
0010
0000
0100
0000
,  // measure 45
1001
0000
0000
0001
0000
0000
1000
0000
0010
0000
0000
0000
1000
0000
0010
0000
,  // measure 46
0100
0000
0000
0001
0000
0000
0101
0000
1010
0000
0000
0000
0010
0000
1000
0000
,  // measure 47
0001
0000
0000
0011
0000
0000
0001
0000
1000
0000
0000
0000
0001
0000
1001
0000
,  // measure 48
0000
0010
0110
0000
1000
0001
0100
0010
,  // measure 49
1000
0000
0000
1010
0000
0000
0100
0000
1001
0000
0000
0000
0001
0000
0010
0000
,  // measure 50
0100
0000
0000
0010
0000
0000
0110
0000
1001
0000
0000
0000
0010
0000
1000
0000
,  // measure 51
0100
0000
0000
0110
0000
0000
0110
0000
1001
0000
0000
1000
0000
0000
0110
0000
,  // measure 52
1001
0000
0000
1010
0000
0000
0001
0000
1000
0000
0000
0000
0100
0000
0010
0000
,  // measure 53
0001
0000
0000
0101
0000
0000
1000
0000
1001
0000
0000
0000
0001
0000
0100
0000
,  // measure 54
0010
0000
0000
1000
0000
0000
1100
0000
0011
0000
0000
0000
1000
0000
0010
0000
,  // measure 55
0100
0000
0000
0101
0000
0000
1010
0000
1001
0000
0000
0000
0100
0000
1001
0000
,  // measure 56
0000
0100
0110
0000
0010
0100
0001
0200
,  // measure 57
0000
0000
0300
0000
;

//---------------dance-single - ----------------
#NOTES:
     dance-single:
     :
     Medium:
     5:
     0.375,0.404,0.378,0.020,0.000: // measure 1
1000
0000
0001
1000
0001
0000
0000
0000
,  // measure 2
0010
1000
0001
0000
,  // measure 3
1000
0000
0001
1000
0001
0000
0000
0000
,  // measure 4
1000
0001
1000
0000
,  // measure 5
1001
0000
0100
0010
0100
0000
0000
0000
,  // measure 6
0001
0001
0110
0000
,  // measure 7
1001
0000
0001
1000
0001
0000
0000
0000
,  // measure 8
1000
1000
1001
0000
,  // measure 9
1000
0000
0001
0000
,  // measure 10
1000
0010
1001
0000
,  // measure 11
0001
0000
1000
0000
,  // measure 12
0010
1000
1001
0000
,  // measure 13
0011
0000
1100
0000
,  // measure 14
0001
1000
1001
0000
,  // measure 15
1010
0000
0101
0000
,  // measure 16
0010
0100
0110
0000
,  // measure 17
1000
0000
0001
0000
1000
0010
1000
0000
,  // measure 18
0001
0000
1000
0000
0001
0010
0001
0000
,  // measure 19
2000
0000
0000
3001
0000
0000
0000
0000
,  // measure 20
1010
0000
0000
0101
0000
0000
0010
0000
,  // measure 21
1000
0000
0001
1000
0001
0000
1000
0000
,  // measure 22
0010
0000
0100
0010
0100
0000
0001
1000
,  // measure 23
0010
0000
1000
0001
1000
0000
0010
1000
,  // measure 24
0001
1000
0101
1010
,  // measure 25
1001
0000
0000
0001
1000
0000
0010
0000
,  // measure 26
0100
0000
0000
0010
0100
0000
0000
0000
,  // measure 27
0010
0010
0100
0100
,  // measure 28
0010
0100
0010
0000
1001
0000
0000
0000
,  // measure 29
1010
0000
0000
0001
1000
0000
0000
0000
,  // measure 30
0011
0000
0000
1000
0100
0000
0000
0000
,  // measure 31
1000
0000
1000
0000
0001
0000
1000
0001
,  // measure 32
0000
1000
0010
0000
0100
0010
0100
0010
,  // measure 33
0100
0000
0001
1000
0001
0000
0000
0000
,  // measure 34
0100
0001
1000
0000
,  // measure 35
0001
0000
1000
0001
1000
0000
0000
0000
,  // measure 36
0001
1000
0001
0000
,  // measure 37
1001
0000
0010
0100
0010
0000
0000
0000
,  // measure 38
1000
1000
0110
0000
,  // measure 39
1001
0000
1000
0001
1000
0000
0000
0000
,  // measure 40
0001
0001
1001
0000
,  // measure 41
1001
0000
0000
1000
0010
0000
0110
0000
,  // measure 42
1001
0000
0000
0001
0010
0000
0000
1000
,  // measure 43
0001
0000
1000
0000
1001
0000
0001
1000
,  // measure 44
0010
0000
1000
0001
1000
0000
0010
0000
,  // measure 45
1010
0000
0000
0010
0100
0000
1010
0000
,  // measure 46
0101
0000
0000
0010
0100
0000
0000
0000
,  // measure 47
0010
0000
1000
0001
1000
0000
0010
1000
,  // measure 48
0000
0001
0100
0000
0010
0100
0010
0100
,  // measure 49
0001
0000
0000
1000
0001
0000
1100
0000
,  // measure 50
0011
0000
0000
0100
1000
0000
0000
0010
,  // measure 51
1000
0000
0001
0000
1010
0000
0100
0001
,  // measure 52
1000
0000
0010
0100
0001
0000
1000
0000
,  // measure 53
1001
0000
0000
0001
1000
0000
0110
0000
,  // measure 54
1001
0000
0000
0010
0100
0000
0000
0000
,  // measure 55
0100
0000
0010
0100
0010
0000
1000
0001
,  // measure 56
0000
1000
0010
0000
1000
0001
1000
0020
,  // measure 57
0000
0000
0030
0000
;

//---------------dance-single - ----------------
#NOTES:
     dance-single:
     :
     Easy:
     3:
     0.279,0.285,0.092,0.357,0.000: // measure 1
0010
1000
0002
0000
,  // measure 2
1000
0000
1003
0000
,  // measure 3
1000
0010
0200
0000
,  // measure 4
0001
0000
0301
0000
,  // measure 5
1000
0001
2000
0000
,  // measure 6
0010
0000
3010
0000
,  // measure 7
1000
0001
0200
0000
,  // measure 8
0010
0000
0310
0000
,  // measure 9
1000
0000
1000
0000
,  // measure 10
0001
0001
0001
0000
,  // measure 11
1000
0000
1000
0000
,  // measure 12
0010
0010
0010
0000
,  // measure 13
0100
0000
0100
0000
,  // measure 14
0001
0001
0001
0000
,  // measure 15
0010
0000
0010
0000
,  // measure 16
0001
0001
0001
0000
,  // measure 17
2000
0000
0001
3001
,  // measure 18
0002
0000
1000
1003
,  // measure 19
2000
0000
0010
0000
,  // measure 20
3002
0000
1000
0000
,  // measure 21
1003
0000
0010
0010
,  // measure 22
0100
0000
0100
0100
,  // measure 23
0020
0000
0230
0000
,  // measure 24
0310
0100
0010
1001
,  // measure 25
0002
0000
1003
0000
,  // measure 26
0001
1000
1001
0000
,  // measure 27
2000
0000
3002
0000
,  // measure 28
1003
0001
2000
3000
,  // measure 29
2000
0000
3001
0000
,  // measure 30
1000
0001
1001
0000
,  // measure 31
0002
0000
2003
0000
,  // measure 32
3001
0001
1000
0001
,  // measure 33
1000
0010
2000
0000
,  // measure 34
0001
0000
3001
0000
,  // measure 35
0001
0100
0020
0000
,  // measure 36
1000
0000
1030
0000
,  // measure 37
0001
1000
0002
0000
,  // measure 38
0100
0000
0103
0000
,  // measure 39
0001
1000
0020
0000
,  // measure 40
0100
0000
0130
0000
,  // measure 41
0001
1000
1001
0000
,  // measure 42
0100
0200
0310
0000
,  // measure 43
0020
0000
0230
0000
,  // measure 44
0302
0000
2003
3000
,  // measure 45
0001
1000
1001
0000
,  // measure 46
1000
2000
3001
0000
,  // measure 47
0002
0000
2003
0000
,  // measure 48
3010
0100
0010
0100
,  // measure 49
0100
0100
0110
0000
,  // measure 50
0001
0001
1001
0000
,  // measure 51
2000
0000
3002
0000
,  // measure 52
0203
0000
0320
0000
,  // measure 53
0130
0100
0101
0000
,  // measure 54
0010
0010
1010
0000
,  // measure 55
2000
0000
3002
0000
,  // measure 56
1003
0001
0100
0010
;
