#TITLE:Peeping Tom;
#SUBTITLE:;
#ARTIST:S.E.X. Appeal;
#TITLETRANSLIT:;
#SUBTITLETRANSLIT:;
#ARTISTTRANSLIT:;
#CREDIT:;
#BANNER:Peeping Tom-bn.png;
#BACKGROUND:Peeping Tom-bg.png;
#LYRICSPATH:;
#CDTITLE:cd.png;
#MUSIC:Peeping Tom.ogg;
#OFFSET:-8.170;
#SAMPLESTART:47.110;
#SAMPLELENGTH:19.000;
#SELECTABLE:YES;
#BPMS:0.000=148.010,96.000=74.000,100.000=148.010;
#STOPS:;
#BGCHANGES:;

//---------------dance-single - ----------------
#NOTES:
     dance-single:
     :
     Hard:
     9:
     0.642,0.758,0.148,0.532,0.429: // measure 1
1000
0010
0000
1000
0010
0000
1000
0010
0000
1000
0010
0000
1000
0000
1000
0000
,  // measure 2
0010
0100
0000
0010
0100
0000
0010
0100
0000
0010
0100
0000
0001
0000
0001
0000
,  // measure 3
0100
0001
0000
0100
0001
0000
0100
0001
0000
0100
0001
0000
0010
0000
0010
0000
,  // measure 4
0010
0001
0000
0010
0001
0000
0010
0001
0000
0010
0001
0000
0100
0000
0100
0000
,  // measure 5
0001
0100
0000
0001
0100
0000
0001
0100
0000
0001
0100
0000
0010
0000
0010
0000
,  // measure 6
1000
0010
0000
1000
0010
0000
1000
0010
0000
1000
0010
0000
0100
0000
0001
0000
,  // measure 7
0100
0001
0000
0100
0001
0000
0100
0001
0000
0100
0001
0000
0100
0000
0001
0000
,  // measure 8
0010
0001
0000
0010
0001
0000
0010
0001
0000
0010
0001
0000
0100
0000
0010
0000
,  // measure 9
1000
0010
0000
2001
0000
3010
0000
0010
,  // measure 10
1000
0000
0010
0000
1000
0000
0200
0000
0000
0300
1000
0000
0010
0000
1000
0000
,  // measure 11
0001
1000
0000
0000
0001
1000
0000
0000
0010
1000
0000
0000
0010
1000
0000
0000
,  // measure 12
0010
0100
0000
0000
0100
0010
0000
0000
0010
0100
0000
0000
0100
0000
0010
0000
,  // measure 13
0100
0001
1000
0001
0000
2001
0000
3010
,  // measure 14
1000
0001
0010
0100
0000
0100
0010
0001
,  // measure 15
0010
0001
0000
0000
0010
0001
0000
0000
0010
0100
0000
0000
0010
0100
0000
0000
,  // measure 16
1000
0100
1000
0000
0100
1000
0100
0000
1000
0100
1000
0000
0100
0000
0100
0000
,  // measure 17
2000
0000
3002
0000
0203
0000
0310
0100
,  // measure 18
0002
0023
0230
2300
,  // measure 19
3010
1000
0010
1000
0020
0000
2030
0000
,  // measure 20
3001
0100
0001
0100
0020
0000
1030
0000
,  // measure 21
2000
3200
0320
0032
,  // measure 22
0013
0001
0010
0000
0100
1000
0100
0000
,  // measure 23
1000
0010
0100
0010
2000
0000
3001
0100
,  // measure 24
0001
1000
0010
0100
0000
0110
0000
1000
,  // measure 25
0002
0000
0000
0000
0203
0000
0000
0000
0320
0000
0000
0000
2030
0000
0000
0000
3001
1000
0001
0000
0100
0010
0100
0000
0001
0100
0001
0100
0001
0100
0001
0000
,  // measure 26
2001
0000
3100
0000
0100
1000
0100
0000
,  // measure 27
0100
1000
0010
0100
0002
0000
1003
1000
,  // measure 28
2000
0010
0001
3100
,  // measure 29
0100
0010
0100
0010
0100
0000
1001
0000
,  // measure 30
0120
0000
0130
0000
0010
0100
1001
0000
,  // measure 31
0001
1000
0001
1000
0020
0000
0130
0001
,  // measure 32
0200
1300
0200
0301
,  // measure 33
0010
0100
0001
1000
0010
0100
0001
0100
,  // measure 34
0020
0000
0230
0000
0320
0000
0130
0001
,  // measure 35
0200
0000
0302
0000
1003
0000
0010
1000
,  // measure 36
1010
1010
0101
0101
,  // measure 37
0001
1000
0001
1000
0001
1000
0010
1000
,  // measure 38
0020
2030
3200
0320
,  // measure 39
0031
0000
0001
0010
0002
0000
0103
0000
,  // measure 40
0110
1001
0110
1001
,  // measure 41
0001
1000
0001
1000
0001
1000
0001
0000
,  // measure 42
0001
0100
0000
0001
0100
0000
0001
0100
0000
0001
0100
0000
0001
0000
0001
0000
,  // measure 43
0100
0010
0000
0100
0010
0000
0100
0010
0000
0100
0010
0000
1000
0000
1000
0000
,  // measure 44
0010
1000
0000
0010
1000
0000
0010
1000
0000
0010
1000
0000
0100
0000
0100
0000
,  // measure 45
0100
1000
0000
0100
1000
0000
0100
1000
0000
0100
1000
0000
0010
0000
0010
0000
,  // measure 46
1000
0010
0000
1000
0010
0000
1000
0010
0000
1000
0010
0000
0100
0000
0100
0000
,  // measure 47
0001
0100
0000
0001
0100
0000
0001
0100
0000
0001
0100
0000
0010
0000
1000
0000
,  // measure 48
0010
1000
0000
0010
1000
0000
0010
1000
0000
0010
1000
0000
0010
0000
1000
0000
,  // measure 49
0100
1000
0000
0100
1000
0000
0100
1000
0000
0100
1000
0000
0010
0000
0100
0000
,  // measure 50
0020
0000
2030
0000
3001
0001
0002
0000
,  // measure 51
0203
0320
2030
3002
,  // measure 52
0023
0032
0203
0320
,  // measure 53
2030
3002
0203
0320
,  // measure 54
1030
0000
0000
0000
;

//---------------dance-single - ----------------
#NOTES:
     dance-single:
     :
     Medium:
     7:
     0.529,0.627,0.187,0.651,0.010:
1010
0000
1001
0000
0001
1000
0001
0010
,
0200
0000
0310
0000
0001
1000
0010
1000
,
0010
0000
0110
0000
0010
1000
0001
0010
,
0200
0000
0310
0000
0001
1000
0001
1000
,
0010
0000
1010
0000
0010
0100
0001
0010
,
0001
0000
0011
0000
0001
0010
0100
0010
,
0001
0000
0011
0000
0100
0010
0001
1000
,
0010
0000
1010
0000
0010
1000
0001
0010
,
0200
2300
3020
0130
,
0001
0010
0001
0010
0000
0001
0010
0001
,
0010
0200
2300
3020
,
0230
0000
0301
0100
0002
0000
2003
0000
,
3010
1000
0010
0000
0100
0010
0100
0000
,
0001
0010
0001
0000
0010
0100
1000
0000
,
0020
2030
3020
0230
,
0301
0100
0010
0100
0001
0010
0100
1000
,
0020
0000
2030
0000
3002
0000
0013
0100
,
0020
0032
2003
3010
,
1000
0010
1000
0010
2000
0000
3020
0000
,
2030
0000
3010
1000
0020
0000
0130
0000
,
0002
0023
0230
0320
,
0031
0000
1000
0010
1000
0000
0020
0000
,
1030
0001
1000
0001
1000
0000
1001
0000
,
0001
0010
0001
0010
0002
0000
1003
0000
,
0020
0000
2030
0000
3002
0000
0023
0000
0130
1000
0100
0000
1000
0100
1000
0000
,
1020
0000
2030
0000
3001
0010
0011
0000
,
0100
0010
0001
0010
0200
0000
1300
0010
,
2000
3010
0010
0110
,
0010
0100
0010
0100
0020
0000
0130
0000
,
0002
0000
1003
0000
0010
1000
0010
0000
,
0001
0010
0002
0000
1003
0000
0010
1000
,
0010
0200
0301
0010
,
0100
0010
0001
0010
0000
0000
0001
0010
,
0001
0000
0010
0000
0001
0000
0010
0100
,
2000
3010
1010
0000
,
0010
1000
0010
1000
0010
0000
0100
0000
,
1000
0001
1000
0001
2000
0000
3001
0000
,
0001
0100
0010
0100
,
0110
1001
0110
1001
,
0002
2003
3020
0230
,
0302
2003
3020
1030
,
0010
0000
1000
0000
0010
1000
0010
1000
,
0020
0000
0130
0000
0001
0010
0001
0010
,
0002
0000
1003
0000
0100
1000
0010
1000
,
0020
0000
0130
0000
0001
0010
0100
0010
,
0001
0000
1001
0000
0010
0100
0010
1000
,
0010
0000
1010
0000
0001
0010
0100
0010
,
0001
0000
0011
0000
0100
0010
0001
1000
,
0020
0000
0130
0000
0001
0100
0010
1000
,
0002
0000
2003
0000
3002
1000
1003
0000
,
0002
0000
2003
0000
3001
1000
0001
0000
,
0002
0000
0203
0000
0310
0100
0020
0000
,
2030
0000
3002
0000
0013
0100
0010
0000
,
0001
0000
0000
0000
;

//---------------dance-single - ----------------
#NOTES:
     dance-single:
     :
     Easy:
     4:
     0.386,0.444,0.424,0.306,0.000:
1000
0010
1000
1001
,
0001
0100
0001
0011
,
0100
0010
0001
1001
,
0010
0100
0010
0110
,
1000
0001
0010
0011
,
0001
1000
0010
0110
,
0001
1000
0100
0110
,
0001
0010
0001
0010
,
0100
1000
0010
0000
,
1000
0010
0100
0000
,
0001
0010
0100
0000
,
1000
0001
1000
0000
,
0001
1000
1010
0010
,
0100
0001
0010
0011
,
0100
0010
0001
1001
,
0010
1000
0001
1001
,
0002
1000
1000
1003
,
2000
0010
0010
3010
,
0020
0230
0302
0023
,
0230
2300
3020
2030
,
3002
0100
0100
0103
,
2000
0010
0010
3010
,
0020
2030
3002
0023
,
0230
0320
0032
1003
,
0010
0010
0010
0010
,
0010
1000
0001
1001
,
0001
1000
0002
1003
,
0010
0010
0010
0110
,
0020
0130
0220
0330
,
0001
0001
1000
1010
,
0010
1000
0100
0010
,
0002
1003
2000
3001
,
0011
0011
1100
1010
,
1001
0110
1001
0011
,
0100
0100
1000
0010
,
1010
1010
0101
0101
,
0010
0100
0010
1000
,
1001
0110
1001
0110
,
1001
0002
1003
0001
,
0001
2000
3001
1000
,
1001
0110
1001
0110
,
0001
0100
0001
1001
,
1000
0010
1000
1100
,
0010
0100
1000
1001
,
0100
0010
0100
0110
,
0001
1000
0100
1100
,
1000
0001
0100
0110
,
1000
0001
0010
0110
,
1000
0100
1000
0100
,
0020
0000
0001
0031
,
0002
0000
1000
1000
,
2003
0000
0000
0000
,
3020
0000
0000
0030
,
0001
0000
0000
0000
;
