#TITLE:One Love;
#SUBTITLE:;
#ARTIST:David Guetta feat. Estelle;
#TITLETRANSLIT:;
#SUBTITLETRANSLIT:;
#ARTISTTRANSLIT:;
#CREDIT:;
#BANNER:One love-bn.png;
#BACKGROUND:One Love-bg.png;
#LYRICSPATH:;
#CDTITLE:cd.png;
#MUSIC:One Love.ogg;
#OFFSET:-0.153;
#SAMPLESTART:68.010;
#SAMPLELENGTH:12.000;
#SELECTABLE:YES;
#BPMS:0.000=126.470;
#STOPS:;
#BGCHANGES:;

//---------------dance-single - ----------------
#NOTES:
     dance-single:
     :
     Hard:
     7:
     0.499,0.438,0.317,0.496,0.040: // measure 1
0000
0000
0000
0000
,  // measure 2
0000
0000
0000
0000
,  // measure 3
0000
0000
0000
0000
,  // measure 4
0000
0000
0000
0000
,  // measure 5
1000
0010
0010
0000
0100
0001
0001
0000
,  // measure 6
1000
0001
0001
0000
0010
0100
0100
0000
,  // measure 7
1000
0000
0010
0000
0000
0010
0000
0000
0010
0000
0000
0110
0000
0000
0110
0000
,  // measure 8
0000
0000
0001
0000
0000
1000
0000
0000
1000
0000
0000
1001
0000
0000
1001
0000
,  // measure 9
0010
1000
0010
0000
1000
0010
0100
0000
,  // measure 10
0001
0010
0100
0000
1000
0001
1000
0000
,  // measure 11
0010
0000
0100
0000
0000
0100
0000
0000
0100
0000
0000
1001
0000
0000
1001
0000
,  // measure 12
0000
0000
0010
0000
0000
0010
0000
0000
0010
0000
0000
0110
0000
0000
0110
0000
,  // measure 13
0010
0100
0010
1000
0002
0000
1003
0000
,  // measure 14
1010
0000
0101
0000
0100
0100
0100
0010
,  // measure 15
0010
1000
0001
0010
0020
0000
0031
0000
,  // measure 16
1100
0000
0011
0000
1000
1000
2000
0000
,  // measure 17
3010
0100
0001
0001
2000
0000
3010
0000
,  // measure 18
1010
0000
0101
0000
0100
0100
0100
0010
,  // measure 19
2000
3020
0230
0301
,  // measure 20
1001
0000
0110
0000
0001
0001
1000
0000
,  // measure 21
2001
3010
0002
0103
,  // measure 22
0020
0000
1030
0000
0010
0010
0100
0000
,  // measure 23
0002
0000
2003
0000
3010
0100
0001
1000
,  // measure 24
0020
0000
0230
0000
0301
1000
0001
1000
,  // measure 25
0020
2030
3002
0203
,  // measure 26
0310
0010
0010
0000
0100
0100
0100
0010
,  // measure 27
2000
3002
0203
0320
,  // measure 28
1030
0010
1000
0000
0001
0100
0002
0000
,  // measure 29
2003
0000
3020
0000
0130
0010
1000
0001
,  // measure 30
0020
0000
0032
0000
0013
0100
1000
0010
,  // measure 31
2000
0000
3020
0000
0130
0001
0100
0010
,  // measure 32
2000
0000
3020
0000
0130
0001
0010
0100
,  // measure 33
0020
0032
2003
3002
,  // measure 34
0023
0000
0230
0000
1300
0001
1000
0001
,  // measure 35
2000
3020
0230
0302
,  // measure 36
2003
3000
0010
2000
,  // measure 37
3100
0000
0101
0000
1000
0000
0001
1000
,  // measure 38
0010
0100
0001
0010
0001
0100
0002
0000
,  // measure 39
1003
0000
1010
0000
0010
1000
0010
0100
,  // measure 40
0001
0010
0001
1000
0010
0000
2000
0000
,  // measure 41
3010
0000
1010
0000
0010
0100
0001
0010
,  // measure 42
0001
0010
0100
1000
0020
0000
2030
0000
,  // measure 43
3001
0000
1001
0000
0001
1000
0001
0010
,  // measure 44
0100
1000
0010
1000
0010
0000
1010
0000
,  // measure 45
0101
0000
2010
0000
3001
0000
1000
0001
,  // measure 46
0100
0010
1000
0100
1000
0010
1000
0000
,  // measure 47
1001
0000
0101
0000
0100
0001
0100
0010
,  // measure 48
1000
0100
1000
0001
0100
0000
0101
0000
,  // measure 49
0110
0000
1001
0000
0100
0010
1000
0100
,  // measure 50
1000
0100
0010
0001
0100
0000
0011
0000
,  // measure 51
1100
0000
1001
0000
1000
0001
1000
0100
,  // measure 52
0010
0001
0100
0001
0200
0000
0302
0000
,  // measure 53
0103
0000
0000
0000
;

//---------------dance-single - ----------------
#NOTES:
     dance-single:
     :
     Medium:
     5:
     0.329,0.413,0.099,0.387,0.000:
0000
0000
0000
0000
,
0000
0000
0000
0000
,
0000
0000
0000
0000
,
0000
0000
0000
0000
,
1000
0000
0010
0000
,
0100
0000
0000
0000
0010
0100
0010
0000
,
0100
0000
0001
0000
,
1000
0000
0001
1000
,
0002
0000
2003
0000
,
3020
0000
0230
0000
,
0302
0000
2003
0000
,
3020
0000
0230
0000
,
0310
0100
0010
0100
0010
0000
0100
0000
,
0001
1000
0100
0010
,
0001
1000
0001
1000
0001
0000
1000
0000
,
0010
0100
0001
1000
,
0001
1000
0001
1000
0010
0000
0100
0000
,
0001
0010
0100
1000
,
0010
1000
0001
0100
0010
0000
1000
0000
,
0002
1003
2000
3001
,
0002
0000
2003
0000
,
3020
0000
0230
0000
,
0302
0000
2003
0000
,
3200
0000
0320
0000
,
0032
0000
0203
0000
,
0320
0000
2030
0000
,
3002
0000
2003
0000
,
3020
0000
0230
0000
,
0301
0001
0001
0001
,
1000
1000
1000
1000
,
0010
0010
0010
0010
,
0100
0100
0100
0100
,
0020
0000
0100
0000
,
0230
0000
0001
0000
,
0302
0000
1000
0000
,
2003
0000
0000
3001
,
1001
0000
1000
0000
1010
0000
0010
1000
,
0010
1000
0010
1000
0010
0000
0100
0000
,
0001
0000
0101
0000
0100
0001
0100
0001
,
0100
0010
0100
0001
0100
0000
0010
0000
,
1000
0000
1010
0000
1001
0000
0001
1000
,
0001
1000
0001
1000
0000
0000
0010
0000
,
0100
0000
0110
0000
1001
0000
0001
0010
,
0100
1000
0010
0100
0001
1000
0020
0000
,
1030
0000
0010
0000
1010
0000
0010
1000
,
0010
0100
0001
0020
,
0031
0000
0011
0000
1100
0000
0010
1000
,
0010
1000
0001
0000
1000
0010
0100
0000
,
0002
0000
1003
0000
1000
0001
1000
0000
,
0010
0100
0001
0010
0100
1000
0020
0000
,
0230
0302
2003
3010
,
0200
0000
0320
0000
,
0130
0000
0000
0000
;

//---------------dance-single - ----------------
#NOTES:
     dance-single:
     :
     Easy:
     4:
     0.288,0.361,0.298,0.288,0.000:
0000
0000
0000
0000
,
0000
0000
0000
0000
,
2000
0000
0000
3000
,
0002
0000
0000
0003
,
0100
0000
0010
0000
,
0100
0000
0010
0010
,
0200
0000
0000
0300
,
0020
0000
0000
0030
,
1000
0000
0001
0000
,
0010
0001
0100
0010
,
2000
0000
0000
3000
,
0002
0000
0000
0003
,
2000
3000
0010
0100
,
0010
0100
0001
1000
,
0002
0003
0100
0010
,
1000
0001
1001
1001
,
1000
0010
0100
0010
,
0200
0000
0000
0310
,
0010
0100
0010
0100
,
1001
1010
0101
1010
,
2000
0000
3002
0000
,
0203
0000
0320
0000
,
0230
0000
0302
0000
,
2003
0000
3020
0000
,
0230
0000
0320
0000
,
2030
0000
3002
0000
,
2003
0000
3002
0000
,
2003
0000
3002
0000
,
1003
1000
1000
1000
,
0001
0001
0001
0001
,
0100
0100
0100
0100
,
0010
0010
0010
0010
,
0200
0000
0000
0000
,
0300
0000
0000
0000
,
0020
0000
0000
0000
,
0030
0000
0000
0010
,
0110
0101
1010
0010
,
1000
0001
0010
0011
,
0101
1001
0001
1000
,
0010
0100
0010
0110
,
1001
0110
0001
1000
,
0010
1000
0001
0101
,
0110
0101
1000
0010
,
1000
0100
0010
0011
,
0101
1001
0001
0010
,
0100
1000
0001
1000
,
1100
1001
0011
0001
,
0100
0010
1000
0001
,
1100
1001
0011
0001
,
0100
0010
1000
0010
,
1010
1001
0100
0010
,
2000
0000
3002
1003
,
1001
0000
0000
0000
;
