#TITLE:On My Way;
#SUBTITLE:(Da Tweekaz Remix);
#ARTIST:Alan Walker, Sabrina Carpenter & Farruko;
#TITLETRANSLIT:;
#SUBTITLETRANSLIT:;
#ARTISTTRANSLIT:;
#CREDIT:;
#BANNER:On My Way (Da Tweekaz Remix)-bn.PNG;
#BACKGROUND:On My Way (Da Tweekaz Remix)-bg.PNG;
#LYRICSPATH:;
#CDTITLE:cd.png;
#MUSIC:On My Way (Da Tweekaz Remix).ogg;
#OFFSET:-7.393;
#SAMPLESTART:108.710;
#SAMPLELENGTH:12.000;
#SELECTABLE:YES;
#BPMS:0.000=169.984,128.000=84.992,160.000=42.496,168.000=84.992,184.000=169.984;
#STOPS:;
#BGCHANGES:;

//---------------dance-single - ----------------
#NOTES:
     dance-single:
     :
     Hard:
     7:
     0.443,0.719,0.353,0.177,0.201:
2000
0000
0000
0000
,
3000
0000
0000
0000
,
0002
0000
0000
0000
,
0003
0000
0000
1000
,
0010
0000
1000
0010
,
1000
0000
0010
0100
,
0001
0000
0001
0010
,
0100
0000
0100
0010
,
0011
0000
0000
0001
0010
0001
0010
0000
,
0001
0001
1000
0010
,
1010
0010
0010
0010
,
0010
0010
0010
0010
,
0010
1000
0010
1000
0010
1000
0010
1000
,
0010
0100
0001
0100
0001
0100
0001
0100
,
0010
0100
0001
0010
0100
1000
0010
1000
,
0010
0010
0010
0000
,
1001
0000
0001
0000
1000
0010
1000
0010
,
1000
0000
0000
0010
0000
0000
1000
0000
0010
0000
0000
0000
0010
0000
0000
0000
,
0100
0000
0001
0000
0001
0010
0100
0010
,
0001
0000
0000
0001
0000
0000
0010
0000
0100
0000
0000
0000
0100
0000
0000
0000
,
1010
0000
0110
0000
0001
1000
0001
1000
,
0001
0000
0000
0001
0000
0000
0010
0000
0100
0000
0000
0000
0010
0000
0000
0000
,
0001
0000
0001
0000
1000
0010
0100
0010
,
0100
0010
0010
0010
,
1010
0000
0010
0000
0100
0010
0100
0010
,
0100
0000
0000
0100
0000
0000
0010
0000
0100
0000
0000
0000
1000
0000
0000
0000
,
0001
0000
1000
0000
0001
0010
0100
0010
,
0001
0000
0000
0001
0000
0000
1000
0000
0010
0000
0000
0000
1010
0000
0000
0000
,
0110
0000
1001
0000
0100
0010
0100
0010
,
0001
0000
0000
0001
0000
0000
1000
0000
1000
0000
0000
0000
0010
0000
0000
0000
,
0110
0000
1010
0000
0001
0001
0001
1000
,
0010
0000
0000
1010
0000
0000
0100
0000
0010
0000
0000
0000
1001
0000
0000
0000
,
2000
0000
3020
0000
,
0230
0000
0320
0000
1000
1000
1030
0000
,
2020
3030
0202
0303
,
0010
0000
0100
0000
0010
0010
0010
0000
,
1010
0000
0000
0000
1010
0000
0000
0000
0010
1000
0010
1000
0000
0000
0000
0010
,
0000
1000
0010
1000
0010
0000
0100
0000
0020
0000
0000
0000
0230
0000
0000
0000
,
0302
0000
0000
0000
0000
0000
0000
0000
1003
0001
1000
0001
0000
0000
0000
1000
,
0000
0010
1000
0000
0001
0100
0001
0000
0010
0000
0010
0000
0010
0000
0010
0000
,
0200
0000
0000
0010
0000
0000
0000
0000
0010
0000
0000
0010
0300
0000
0000
0000
0002
0000
0000
1000
0000
0000
0000
0000
1000
0000
0000
1000
0003
0000
0000
0000
,
1001
0000
0000
0001
1000
0001
1000
0000
0001
0000
0001
0000
1000
0000
0001
0000
1001
0000
0000
0000
0000
0000
0010
0000
0010
0000
1000
0000
1010
0000
0010
0000
,
0020
0000
0000
1000
0000
0000
1030
0000
0010
0000
1000
0010
1000
0000
0010
0000
,
0100
0000
0001
0100
0001
0000
0010
0000
0010
0000
0001
1000
0000
0000
0000
0000
,
1010
0000
0000
0000
0000
0001
1000
0000
0001
1000
0000
0000
0010
0000
0000
0010
0000
0000
0110
0000
0000
0110
0000
0000
,
1001
0000
0000
0000
0000
0000
0000
0000
0001
1000
0000
0000
0010
0000
0000
0010
0000
0000
0020
0000
0000
0030
0000
0000
,
1001
0000
0000
1010
0000
0000
0010
0000
1000
0010
0000
1000
,
0010
0000
0000
0100
0000
0010
0100
0000
0000
0001
0000
0000
,
1010
0000
0000
0101
0000
0000
0010
0000
1000
0010
0000
1000
,
0010
0000
0000
0100
0000
0010
0100
0000
0000
0001
0000
0000
,
0011
0000
0000
1100
0000
0000
0010
0000
1000
0010
0000
1000
,
0001
0100
0100
0010
,
1010
0000
0000
0101
0000
0000
0010
0000
1000
0100
0000
1000
,
0010
0100
0001
0010
,
0011
1001
1010
1001
,
0001
0000
0000
1000
0000
0010
1000
0000
0000
0001
0000
0000
,
0110
1001
0110
1001
,
1010
0000
0000
0010
0000
1000
0010
0000
0000
0100
0000
0000
,
0020
0000
0000
1030
0000
0001
1000
0000
0010
1000
0000
0000
,
0010
0010
0110
0110
,
1002
2003
3002
1003
,
0010
0010
0020
0030
;

//---------------dance-single - ----------------
#NOTES:
     dance-single:
     :
     Challenge:
     9:
     0.597,0.843,0.506,0.257,0.442:
2000
0000
0010
0010
,
3010
0000
0000
0100
0000
0000
0010
0000
0100
0000
0000
0000
0001
0000
0000
0000
,
0002
0000
1000
1000
,
1003
0000
0000
1000
0000
0000
1000
0000
0010
0000
0000
0000
0010
0000
0000
0000
,
0010
0000
1000
0010
1000
0000
0010
0100
,
0001
0100
0010
1000
0001
0010
0100
0010
,
0001
0000
1000
0010
1000
0010
0100
0001
,
1000
0010
0100
0001
0010
0100
1000
0000
,
1001
0000
0010
1000
0010
1000
0010
0000
,
0010
0010
1010
1010
,
0101
0101
1010
1010
,
1000
0010
1000
0010
1000
0010
1000
0010
,
1000
0001
0100
0010
1000
0001
1000
0010
,
0100
0001
1000
0100
0010
0001
1000
0010
,
1000
0010
1000
0010
1000
0010
1000
0010
0100
0001
0100
0001
0100
0001
0100
0001
,
0200
0300
0200
0300
0200
0300
2002
3003
,
2001
0000
3010
0000
0001
0100
0010
0100
,
0001
0000
0000
1010
0000
0000
0010
0000
1000
0000
0000
0000
0010
0000
0000
0000
,
1010
0000
0101
0000
0010
1000
0001
0010
,
0100
0000
0000
0011
0000
0000
0001
0000
0010
0000
0000
0000
0100
0000
0000
0000
,
1100
0000
1100
0000
0001
1000
0010
1000
,
0010
0000
0000
1010
0000
0000
1000
0000
0010
0000
0000
0000
1000
0000
0000
0000
,
0110
0000
1100
0000
0100
0010
0001
0010
,
0100
0000
0000
1100
0000
0000
0100
0000
2000
0000
0000
0000
3001
0000
0000
0000
,
1010
0000
1010
0000
0001
0100
0010
1000
,
0010
0000
0000
1010
0000
0000
1000
0000
0002
0000
0000
0000
1003
0000
0000
0000
,
0110
0000
0101
0000
0100
0001
1000
0010
,
1000
0000
0000
0110
0000
0000
1000
0000
0001
0000
0000
0000
1010
0000
0000
0000
,
1001
0000
0110
0000
0001
1000
0100
0010
,
0001
0000
0000
1001
0000
0000
0001
0000
2000
0000
0000
0000
3010
0000
0000
0000
,
1010
0000
0101
0000
0010
1000
0001
1000
,
0010
0000
0000
1001
0000
0000
0001
0000
2000
0000
0000
0000
3001
0000
0000
0000
,
1010
0000
0000
1000
0000
0010
0000
0000
1000
0010
1000
0010
0000
0000
0000
0010
,
0000
1000
0010
0100
0010
0000
0100
0000
0020
0000
0000
0000
0230
0000
0000
0300
,
0001
0000
0000
1000
0000
0001
0000
0000
0010
0001
0010
0002
0000
0000
0003
1000
,
0000
0010
1000
0010
1000
0000
0010
0000
1000
0000
0001
0000
0100
0010
1000
0010
,
2000
0000
0000
0002
3000
0023
0000
0030
0001
0100
0001
0100
0000
0000
0000
0001
,
0000
0100
0001
0100
0010
0000
2000
0000
3002
0000
0013
0000
0001
0010
0200
0000
,
2300
0000
0000
0001
3000
0002
0000
0003
0010
0001
0010
0002
0000
0000
0000
0013
,
0000
0001
0010
0001
0010
0001
0100
0010
2000
0000
3002
0000
0203
0000
0310
0000
,
1001
0000
0000
0001
0000
0000
1000
0000
0010
0000
1000
0010
0000
0000
0000
1000
0010
0000
1000
0010
0000
0000
0100
0000
0010
0000
1000
0001
0000
0000
0000
0000
,
1001
0000
0000
0001
1000
0001
1000
0000
0010
0000
0010
0000
1000
0000
0010
0000
0200
0000
0000
0000
0000
0000
0010
0000
0010
0000
0010
0000
0310
0000
1000
0000
,
1001
0000
0000
0001
0000
0000
1000
0000
1000
0010
0000
0000
0010
0000
0000
0100
0000
0000
0001
0000
1000
0010
0000
0000
,
0100
0000
0000
0001
0000
0000
0010
0000
0100
0010
0000
0000
0001
0000
0000
1000
0000
0000
0010
0000
1000
0010
0000
0000
,
1010
0000
0000
0000
0000
0010
1000
0000
0010
1000
0000
0000
0001
0000
0000
0100
0000
0000
0010
0000
0000
0010
0000
0000
,
2000
0000
0000
3002
0000
0000
1003
0000
0010
1000
0000
0000
0010
0000
0000
0010
0000
0000
0010
0000
0000
1001
0000
0000
,
0110
0000
0000
1001
0000
0000
0010
0000
1000
0010
0000
1000
,
0010
0000
0000
0010
0000
1000
0010
0000
0000
0110
0000
0000
,
1001
0000
0000
0110
0000
0000
0001
0000
0001
0010
0000
0001
,
0010
0000
0000
0001
0000
0100
0010
0000
0000
1001
0000
0000
,
1010
0000
0000
1001
0000
0000
0110
0000
0010
1000
0000
0010
,
1000
0110
1001
0110
,
1001
0000
0000
1010
0000
0000
1010
0000
0010
1000
0000
0010
,
1000
0110
1001
0110
,
0010
1000
0010
1000
0000
0010
1000
0000
0010
1000
0000
0010
,
0100
0000
0001
0100
0000
0010
0100
0000
0001
0100
0000
0010
,
0100
0000
0001
1000
0000
0010
1000
0000
0001
1000
0000
0100
,
0010
0000
0001
0010
0000
0100
0010
0000
0000
1001
0000
0000
,
0011
0000
0010
0001
0000
0010
0001
0000
0100
0001
0000
1000
,
0010
0000
0100
0010
0000
1000
0001
0000
1000
0010
0000
0000
,
0110
0000
0000
0110
0000
0000
1001
0000
0001
1000
0000
1000
,
0010
1001
2002
3003
;

//---------------dance-single - ----------------
#NOTES:
     dance-single:
     :
     Medium:
     5:
     0.286,0.346,0.080,0.104,0.000: // measure 1
0000
0000
0000
0000
,  // measure 2
0000
0000
0000
0000
,  // measure 3
0000
0000
0000
0000
,  // measure 4
0000
0000
0000
0000
,  // measure 5
1000
0000
0001
0000
,  // measure 6
1000
0001
1000
0000
,  // measure 7
0010
0000
0100
0000
,  // measure 8
0010
0100
0010
0000
,  // measure 9
2000
0000
0001
0001
,  // measure 10
0001
0001
0001
0001
,  // measure 11
3001
0000
1000
0000
0001
1000
0001
0000
,  // measure 12
1000
0010
0100
0010
,  // measure 13
0100
0010
0100
0000
0001
0000
1000
0000
,  // measure 14
0001
1000
0001
0000
1000
0000
0010
0000
,  // measure 15
1000
0010
1000
0000
0001
0100
0001
0000
,  // measure 16
0100
0100
0200
0300
,  // measure 17
0010
0000
0000
0000
0010
0100
0010
0000
,  // measure 18
1000
0001
1000
0010
,  // measure 19
0200
0000
0300
0000
0001
0010
0001
0000
,  // measure 20
1000
0001
1000
0010
,  // measure 21
1010
0000
0000
0000
0100
0010
0100
0000
,  // measure 22
0001
1000
0001
0010
,  // measure 23
0011
0000
0000
0000
0001
0010
0001
0000
,  // measure 24
1000
0010
1000
0001
,  // measure 25
0010
0000
1000
0000
0001
1000
0001
1000
,  // measure 26
0010
0100
0001
0000
,  // measure 27
1000
0000
0010
0000
1000
0100
1000
0100
,  // measure 28
0010
0001
1000
0000
,  // measure 29
0001
0000
1000
0000
0010
1000
0010
0100
,  // measure 30
0010
1000
0001
0011
,  // measure 31
1100
0000
0000
0000
0001
1000
0001
0000
,  // measure 32
1000
0010
0100
0001
,  // measure 33
2000
0000
3000
0000
,  // measure 34
0010
0100
0010
0100
,  // measure 35
0002
0000
0003
0000
,  // measure 36
1000
0000
0001
0000
1000
0000
0010
1000
,  // measure 37
0010
0000
0010
0000
0010
0010
0010
0000
,  // measure 38
0100
0000
0010
0000
0100
0100
0100
0000
,  // measure 39
0001
0000
0001
0000
0001
0001
0001
0000
,  // measure 40
1000
0000
0001
0000
1000
0001
1000
0010
,  // measure 41
2000
3000
0020
0030
,  // measure 42
0200
0300
0002
0003
,  // measure 43
2000
0000
3020
0000
,  // measure 44
0230
0000
0000
0000
0302
0000
0000
0003
,  // measure 45
1000
0000
0001
0001
1000
0001
1000
0001
,  // measure 46
1000
0000
0010
0100
0010
0000
0100
0000
,  // measure 47
1001
0000
0001
0001
,  // measure 48
1000
0001
1000
0000
,  // measure 49
0110
0000
0010
0010
,  // measure 50
0100
0010
0100
0000
,  // measure 51
1001
0000
0001
1000
,  // measure 52
0001
1000
1000
0010
,  // measure 53
1010
0000
0010
0010
,  // measure 54
0100
0010
1000
0001
,  // measure 55
1000
0001
1000
0000
0010
0000
0100
0000
,  // measure 56
0001
0100
0001
0000
0100
0000
0010
0000
,  // measure 57
1000
0010
1000
0000
0100
0000
0010
0000
,  // measure 58
0001
1000
0001
0000
1000
0000
0010
0000
,  // measure 59
1001
0010
1000
0001
,  // measure 60
1000
1000
0001
1000
,  // measure 61
1001
0001
1000
0010
,  // measure 62
1000
1000
1000
0000
;

//---------------dance-single - ----------------
#NOTES:
     dance-single:
     :
     Easy:
     3:
     0.200,0.272,0.129,0.104,0.000: // measure 1
0010
0000
0000
0000
,  // measure 2
0000
0000
0000
0000
,  // measure 3
0000
0000
0000
0000
,  // measure 4
0000
0000
0000
0000
,  // measure 5
1000
0000
0000
0000
,  // measure 6
0001
0000
0000
0000
,  // measure 7
1000
0000
0000
0000
,  // measure 8
0010
0000
0000
0000
,  // measure 9
0100
0000
0100
0100
,  // measure 10
0100
0100
0100
0100
,  // measure 11
0010
0000
0000
0000
,  // measure 12
0010
0000
0000
0000
,  // measure 13
0010
0000
0010
0000
,  // measure 14
0010
0000
0010
0000
,  // measure 15
0010
0010
0010
0010
,  // measure 16
0220
0000
0000
0330
,  // measure 17
1001
0000
0001
1000
,  // measure 18
0001
1000
0010
0000
,  // measure 19
0100
0000
0001
1000
,  // measure 20
0001
1000
0010
0000
,  // measure 21
0100
0000
0001
0010
,  // measure 22
0100
1000
0010
1010
,  // measure 23
0101
0000
0100
0010
,  // measure 24
1000
0001
0010
0100
,  // measure 25
0110
0000
0100
1000
,  // measure 26
0001
0010
0011
1100
,  // measure 27
0010
1000
0001
0010
,  // measure 28
0100
1000
1001
0000
,  // measure 29
1000
0001
1000
0010
,  // measure 30
0100
0001
0010
0100
,  // measure 31
1001
0000
1000
0010
,  // measure 32
1000
0100
0010
0001
,  // measure 33
2000
0000
3000
0000
,  // measure 34
0000
0000
0000
0000
,  // measure 35
0020
0000
0030
0000
,  // measure 36
0000
0000
0000
0000
,  // measure 37
0200
0000
0300
0000
,  // measure 38
0002
0000
0003
0000
,  // measure 39
2000
0000
3000
0000
,  // measure 40
0020
0000
0030
0000
,  // measure 41
2002
3003
0020
0030
,  // measure 42
0200
0300
0020
0030
,  // measure 43
1000
0000
0001
0000
,  // measure 44
1000
0000
1010
0000
,  // measure 45
1001
0001
0001
0001
,  // measure 46
0001
0000
1000
1000
,  // measure 47
0010
0000
0010
0010
,  // measure 48
0100
0010
0100
0000
,  // measure 49
0001
0000
1000
1000
,  // measure 50
0001
1000
0001
0000
,  // measure 51
1000
0000
0010
0100
,  // measure 52
0001
1000
0001
1000
,  // measure 53
0010
0000
0100
0010
,  // measure 54
1000
0001
0010
0000
,  // measure 55
1001
0000
1001
0000
,  // measure 56
1010
0000
1010
0000
,  // measure 57
0010
0000
0010
0000
,  // measure 58
0100
0100
0100
0000
,  // measure 59
0001
0000
1000
0001
,  // measure 60
0010
0001
1000
0010
,  // measure 61
1000
0000
1000
1000
,  // measure 62
0000
0010
1000
0000
;
