#TITLE:Olympic Games;
#SUBTITLE:;
#ARTIST:Otello;
#TITLETRANSLIT:;
#SUBTITLETRANSLIT:;
#ARTISTTRANSLIT:;
#CREDIT:;
#BANNER:Olympic Games-bn.png;
#BACKGROUND:Olympic Games-bg.png;
#LYRICSPATH:;
#CDTITLE:cd.png;
#MUSIC:Olympic Games.mp3;
#OFFSET:-6.060;
#SAMPLESTART:54.410;
#SAMPLELENGTH:12.000;
#SELECTABLE:YES;
#BPMS:0.000=160.010,193.000=80.005,201.000=160.010;
#STOPS:32.000=1.125
;
#BGCHANGES:;

//---------------dance-single - ----------------
#NOTES:
     dance-single:
     :
     Hard:
     8:
     0.595,0.524,0.354,0.568,0.028: // measure 1
1001
0000
0001
1000
0002
0000
2003
0000
,  // measure 2
3002
1003
2010
3010
,  // measure 3
1010
0000
0010
1000
0200
0000
0320
0000
,  // measure 4
0230
0310
0012
1003
,  // measure 5
1002
0203
0302
0023
,  // measure 6
0230
2300
3020
0130
,  // measure 7
0210
0310
0201
0301
,  // measure 8
0010
2000
3002
0103
,  // measure 9
1001
0000
0000
0000
1000
0000
0010
0100
0010
0000
1000
0000
0010
0000
0100
0000
,  // measure 10
0001
0010
0100
1000
0001
0010
0200
0000
,  // measure 11
1300
0000
0000
0000
0010
0000
0100
0010
0100
0000
0010
0000
0100
0000
0001
0000
,  // measure 12
0010
0100
1000
0001
0010
0001
0010
0000
,  // measure 13
1001
0000
0000
0000
0100
0000
0001
1000
0001
0000
0100
0000
0010
0000
1000
0000
,  // measure 14
0001
0100
0010
1000
0001
0100
0020
0000
,  // measure 15
1030
0000
0001
0001
0002
1000
1003
1000
,  // measure 16
0010
0100
0002
0000
1003
0000
0010
1001
,  // measure 17
0000
0000
0002
0000
1003
0010
0100
0001
,  // measure 18
1000
0000
0020
0000
1030
0001
0010
0100
,  // measure 19
1000
0000
0001
1000
0010
0000
1000
0001
,  // measure 20
1000
0000
1010
0000
0101
0000
0010
0100
,  // measure 21
0001
0000
2000
0000
3001
0100
0010
0100
,  // measure 22
0001
0000
0200
0000
0310
0100
0001
1000
,  // measure 23
0010
0000
0100
0100
0100
0000
0010
0010
,  // measure 24
0010
2000
3002
2003
,  // measure 25
3010
0100
0000
0001
1000
0010
0100
0001
,  // measure 26
0000
0010
0000
0100
0000
0110
0000
1001
,  // measure 27
0000
1000
0000
0001
1000
0010
0100
0001
,  // measure 28
0000
1000
0000
0001
0000
1100
0000
1001
,  // measure 29
0000
2000
0000
3010
0100
0001
0100
0010
,  // measure 30
0000
0200
0000
0301
0010
0100
0010
0001
,  // measure 31
0000
1000
0010
0100
0001
0100
0000
0010
,  // measure 32
0000
0010
0000
0000
1010
0000
0101
0000
,  // measure 33
0110
0000
1001
0000
0001
1000
0010
0100
,  // measure 34
0001
1000
0000
0010
2000
0000
3002
0000
,  // measure 35
0103
0000
1010
0000
0010
0100
0001
1000
,  // measure 36
0100
0010
0000
0001
2000
0000
3020
0000
,  // measure 37
0230
0000
0310
0100
0010
0000
1000
0001
,  // measure 38
1000
0000
0001
0010
0001
0000
1000
0100
,  // measure 39
1000
0002
0203
0320
,  // measure 40
2030
3001
1010
0101
,  // measure 41
0110
0000
1001
0000
1000
0001
0100
0010
,  // measure 42
1000
0001
0000
0100
0020
0000
2030
0000
,  // measure 43
3001
0000
0101
0000
0100
0010
1000
0001
,  // measure 44
0010
0100
0000
1000
0002
0000
0203
0000
,  // measure 45
0310
2002
3003
0220
,  // measure 46
0330
0000
0010
0000
0100
0000
0010
0100
,  // measure 47
0020
0000
2030
0000
3002
0000
0013
0100
,  // measure 48
1000
0010
0000
1000
0010
0000
1001
0000
,  // measure 49
0110
0000
1001
0000
0010
0000
0100
0100
,  // measure 50
0100
0000
1010
0000
0101
0000
0001
0001
,  // measure 51
1000
0000
0100
0000
0010
0000
0100
0010
,  // measure 52
0100
0001
0100
0010
0100
0001
1000
0000
,  // measure 53
0100
0000
0100
1000
0100
0000
0010
0100
,  // measure 54
0020
0130
0000
2002
,  // measure 55
3003
0000
0000
0000
1001
0000
1000
0001
1000
0000
0100
0000
1000
0000
0001
0000
,  // measure 56
0010
0001
1000
0010
0100
0001
2000
0000
,  // measure 57
3001
0000
0000
0000
1000
0000
0001
1000
0001
0000
1000
0000
0001
0000
0010
0000
,  // measure 58
0100
1000
0100
0010
0001
1000
0001
0000
,  // measure 59
0110
0000
0000
0000
0001
0000
0010
0100
0010
0000
0001
0000
1000
0000
0100
0000
,  // measure 60
0010
0001
1000
0100
0010
0001
2000
0000
,  // measure 61
3100
0000
0010
0010
0020
0100
0130
0100
,  // measure 62
1000
0001
0020
0000
0130
0000
1000
0110
,  // measure 63
0000
2002
3003
0000
;

//---------------dance-single - ----------------
#NOTES:
     dance-single:
     :
     Challenge:
     9:
     0.646,0.641,0.326,0.382,0.140:
1001
0000
0010
0100
0020
0000
0230
0000
,
0302
0013
0011
1100
,
0110
0000
0001
1000
0020
0000
0130
0000
,
1010
1010
0110
0110
,
2001
0000
3001
0010
0200
0000
2300
0000
,
3020
0230
0001
0310
,
0110
0000
0010
0100
0010
0000
0100
0010
,
0200
0301
0002
1003
,
1001
0000
0000
0000
0110
0000
0010
0100
0010
0000
0100
0000
0001
0000
1000
0000
,
0010
1000
0100
0010
0001
1000
0010
0000
,
1001
0000
0000
0000
0010
0000
1000
0001
1000
0000
0010
0000
0100
0000
0001
0000
,
1000
0000
0010
0000
1000
0010
1000
0001
1000
0010
1000
0001
1000
0000
0000
0000
,
0110
0000
0000
0000
1000
0000
0010
1000
0010
0000
0100
0000
0001
0000
0100
0000
,
0010
1000
0001
0010
0100
1000
0010
0000
,
0100
0000
0000
0000
0001
0100
0001
0100
0001
0000
1000
0010
1000
0010
1000
0000
,
0010
0100
0010
0100
0010
0000
0000
0000
0100
0000
0000
0000
0010
0000
1001
0000
,
0000
0000
2000
0000
3010
0000
0100
0001
,
1000
0000
0100
1000
0001
0010
0100
0010
,
0001
0000
1000
0001
0010
0000
0001
1000
,
0100
2000
3002
0203
,
0310
0000
0100
0010
1000
0001
0100
0010
,
1000
0000
0001
0100
0010
1000
0001
1000
,
0010
0000
0100
0001
1000
0010
0100
0001
,
1000
0002
2003
3020
,
1030
1010
0000
0100
0001
1000
0001
0010
,
0100
1000
0010
0100
0001
1000
0001
1000
,
0010
1001
0000
0010
0100
0001
0010
0100
,
1000
0010
0100
0001
1000
0001
1000
0010
,
0100
0001
0100
0010
0010
0100
0010
0100
,
1001
0000
0110
0000
0001
1000
0100
0010
,
0100
0000
0100
0010
0001
1000
0010
0100
,
0001
0010
0100
0000
0020
0000
0230
0000
,
0310
0000
1001
0000
0001
0100
0001
0100
,
0010
1000
0010
1000
0020
0000
2030
0000
,
3100
0000
0110
0000
0001
0010
0100
1000
,
0010
0100
0001
0010
0100
1000
0010
0100
,
0010
0000
1000
0001
0100
0010
0100
0001
,
1000
0001
0100
0001
0010
0001
1000
0010
,
0001
0010
2000
0000
3200
0000
0320
0000
,
0032
2003
3002
0023
,
0130
0000
1001
0000
1000
0010
1000
0010
,
0100
0001
0100
0001
0200
0000
0302
0000
,
0013
0000
0110
0000
1000
0100
0010
0001
,
0100
0010
1000
0100
0010
0001
0100
0010
,
0100
2001
3010
1002
,
0103
0000
0010
1000
0100
1000
0001
0100
,
1000
0100
0002
0000
0023
0000
0130
0000
,
1000
0100
0010
0000
0002
0000
1003
0000
,
0110
0000
0000
0000
1001
0000
0000
0000
0010
0000
0000
0000
0100
0010
0100
0000
,
0001
0100
0001
0000
1010
0000
0000
0000
0101
0000
0000
0000
1000
0100
1000
0010
,
1000
0010
0100
0000
0010
0000
0100
0010
,
0100
0001
0100
0010
0100
0001
1000
0000
,
0100
0000
0100
1000
0100
0000
0010
0100
,
0020
0130
0000
2002
,
3003
0000
0000
0000
0110
0000
0100
0010
0100
0000
0010
0000
1000
0000
0001
0000
,
0100
0001
0010
0100
1000
0001
0100
0000
,
1010
0000
0000
0000
0100
0000
0001
1000
0001
0000
0100
0000
0010
0000
1000
0000
,
0001
0000
0100
0000
0001
0100
0001
1000
0001
0100
0001
1000
0001
0000
0000
0000
,
1001
0000
0000
0000
0001
0000
0100
0001
0100
0000
0010
0000
1000
0000
0010
0000
,
0100
0001
1000
0100
0010
0001
0100
0000
,
0010
0000
0000
0000
1000
0010
1000
0010
1000
0000
0001
0100
0001
0100
0001
0000
,
0100
0010
0100
0010
0100
0000
0000
0000
0010
0000
0000
0000
0100
0000
1001
0000
,
0000
2002
3003
0000
;

//---------------dance-single - ----------------
#NOTES:
     dance-single:
     :
     Easy:
     4:
     0.350,0.437,0.233,0.317,0.000: // measure 1
1000
1000
1000
0000
,  // measure 2
0001
0001
0001
0000
,  // measure 3
1000
0001
1000
0000
,  // measure 4
1000
0001
1001
0000
,  // measure 5
0010
0000
1000
0000
,  // measure 6
0001
1000
0001
0000
,  // measure 7
0100
0000
0001
0000
,  // measure 8
1000
0000
0010
0010
,  // measure 9
1001
0100
0100
0010
,  // measure 10
0010
0100
0001
1000
,  // measure 11
1001
0001
0001
1000
,  // measure 12
1000
0001
1000
1001
,  // measure 13
0000
0001
0001
1000
,  // measure 14
1000
0001
1000
0010
,  // measure 15
0110
0010
0010
0100
,  // measure 16
0100
0220
0330
2002
,  // measure 17
3003
0001
0001
1000
,  // measure 18
0000
1000
1000
0010
,  // measure 19
0000
0100
0001
1000
,  // measure 20
0001
0020
0000
0230
,  // measure 21
0000
1300
0001
1000
,  // measure 22
0000
0001
1000
0010
,  // measure 23
0000
0100
0010
1000
,  // measure 24
0001
2000
3000
0002
,  // measure 25
0003
2000
3000
0002
,  // measure 26
0003
1000
1000
0001
,  // measure 27
1000
0002
0003
2000
,  // measure 28
3000
0010
1000
0001
,  // measure 29
1000
0001
1000
1001
,  // measure 30
0000
0100
0010
1001
,  // measure 31
0000
1000
1000
0010
,  // measure 32
0100
0001
2000
0001
,  // measure 33
3001
1001
0001
1000
,  // measure 34
0010
1000
0020
0100
,  // measure 35
0130
0110
0010
0100
,  // measure 36
0001
1000
0001
1000
,  // measure 37
0010
1000
1000
0001
,  // measure 38
0001
0100
0100
0010
,  // measure 39
0010
0100
0010
1000
,  // measure 40
0001
1000
0020
0100
,  // measure 41
0130
1001
1000
0001
,  // measure 42
0100
0001
0200
0010
,  // measure 43
0310
0110
0100
0010
,  // measure 44
1000
0001
1000
0001
,  // measure 45
0100
2002
3003
0220
,  // measure 46
0330
2002
3003
0100
,  // measure 47
0100
0020
0000
0000
,  // measure 48
0130
0200
0300
0020
,  // measure 49
0030
1001
0000
1000
,  // measure 50
0001
1001
0000
0010
,  // measure 51
0100
0001
0000
1000
,  // measure 52
0000
0001
1000
0001
,  // measure 53
0000
2000
3000
0002
,  // measure 54
0003
0200
0300
1001
,  // measure 55
0000
0010
0010
0100
,  // measure 56
0100
0010
1000
0001
,  // measure 57
1001
1000
1000
0001
,  // measure 58
0001
1000
0001
1001
,  // measure 59
0000
1000
1000
0001
,  // measure 60
0001
1000
0001
0100
,  // measure 61
0110
0100
0100
0010
,  // measure 62
0010
2002
3003
0220
,  // measure 63
0330
2002
3003
0000
;

//---------------dance-single - ----------------
#NOTES:
     dance-single:
     :
     Medium:
     6:
     0.453,0.466,0.289,0.289,0.000: // measure 1
0010
0000
1000
0001
1000
0000
0010
0000
,  // measure 2
0100
0010
1001
0000
,  // measure 3
0001
0000
1000
0010
1000
0000
0010
0000
,  // measure 4
0100
0100
0101
0000
,  // measure 5
1010
0000
0000
0001
1000
0000
0010
0000
,  // measure 6
0100
0010
1001
0000
,  // measure 7
0110
0000
0000
0100
0010
0000
0000
1000
,  // measure 8
0001
2000
0001
3001
,  // measure 9
1001
0000
1000
0000
0001
1000
0010
0000
,  // measure 10
0100
0000
0001
1000
0010
0000
0100
0000
,  // measure 11
1001
0000
0010
0000
1000
0001
1000
0000
,  // measure 12
0010
0000
1000
0001
1000
0001
1000
0000
,  // measure 13
0000
0000
0001
0000
1000
0010
1000
0000
,  // measure 14
0010
0000
0100
0010
0100
0000
0100
0000
,  // measure 15
0010
0000
1000
0010
1000
0000
0001
1000
,  // measure 16
0001
2002
3003
1001
,  // measure 17
0000
0000
0010
0000
1000
0000
0001
1000
,  // measure 18
0001
0000
0100
0000
0010
0000
1000
0010
,  // measure 19
1000
0002
2003
3020
,  // measure 20
0230
0310
0100
1001
,  // measure 21
0110
0000
0010
0000
1000
0000
0001
1000
,  // measure 22
0001
0000
0100
0000
0010
0000
1000
0001
,  // measure 23
1000
0001
0010
0100
,  // measure 24
1000
0001
1000
0010
,  // measure 25
1000
0010
0000
1000
0010
0000
1000
0000
,  // measure 26
0001
1000
0000
0010
0000
0100
0000
0010
,  // measure 27
0000
1001
0000
0010
1000
0000
0001
0010
,  // measure 28
0000
0100
0000
1000
0000
0010
0000
1000
,  // measure 29
0000
0010
0000
1000
0010
0000
0110
0000
,  // measure 30
0000
0010
0000
1000
0001
0000
1001
0000
,  // measure 31
0000
0000
1001
0000
0100
0010
0000
0100
,  // measure 32
0000
1001
0000
0000
0100
0000
0100
0000
,  // measure 33
0010
0000
1001
0000
0001
1000
0001
0000
,  // measure 34
1000
0001
1000
0000
1000
0000
0010
0000
,  // measure 35
0100
0000
1001
0000
0001
0010
0100
0000
,  // measure 36
1000
0010
0100
0000
0001
0000
1000
0000
,  // measure 37
0010
0000
0100
0010
0100
0000
0010
1000
,  // measure 38
0010
0000
0100
0001
0100
0000
0010
1000
,  // measure 39
0010
2000
3001
0200
,  // measure 40
0310
1000
0002
1000
,  // measure 41
1003
0000
1001
0000
1000
0001
1000
0000
,  // measure 42
0001
1000
0001
0000
0001
0000
0100
0000
,  // measure 43
0010
0000
1001
0000
1000
0100
0010
0000
,  // measure 44
0001
0100
0010
0000
1000
0000
0001
0000
,  // measure 45
0100
2020
3030
0202
,  // measure 46
0303
0000
2002
0000
3003
0000
0001
1000
,  // measure 47
0001
2000
3020
0230
,  // measure 48
0301
1000
0002
1000
,  // measure 49
1003
0000
1002
0000
0103
0000
0010
1000
,  // measure 50
0010
0100
1001
0000
0110
0000
0010
0010
,  // measure 51
0010
0000
0100
0000
0001
0000
1000
0001
,  // measure 52
1000
0020
0230
0302
,  // measure 53
2003
0000
3002
0000
0000
2003
0000
0000
,  // measure 54
3001
1000
0000
1001
,  // measure 55
0000
0000
0001
0000
1000
0001
0100
0000
,  // measure 56
0010
0000
1000
0001
0100
0000
0010
0000
,  // measure 57
1001
0000
0100
0000
0001
1000
0001
0000
,  // measure 58
0100
0000
0001
1000
0001
1000
0001
0000
,  // measure 59
0000
0000
1000
0000
0001
0100
0001
0000
,  // measure 60
0100
0000
0010
0100
0010
0000
0010
0000
,  // measure 61
0100
0000
0001
0100
0001
0000
1000
0001
,  // measure 62
1000
2002
3003
0110
,  // measure 63
0000
2002
3003
0000
;
