#TITLE:Oh Nick Please Not So Quick;
#SUBTITLE:(Momo Mix);
#ARTIST:E-Rotic;
#TITLETRANSLIT:;
#SUBTITLETRANSLIT:;
#ARTISTTRANSLIT:;
#CREDIT:;
#BANNER:Oh Nick Please Not So Quick (Momo Mix)-bn.png;
#BACKGROUND:Oh Nick Please Not So Quick (Momo Mix)-bg.png;
#LYRICSPATH:;
#CDTITLE:Dancemania Speed 6.png;
#MUSIC:Oh Nick Please Not So Quick (Momo Mix).mp3;
#OFFSET:-5.004;
#SAMPLESTART:58.380;
#SAMPLELENGTH:12.000;
#SELECTABLE:YES;
#DISPLAYBPM:170.000;
#BPMS:0.000=169.980;
#STOPS:;
#BGCHANGES:;

//---------------dance-single - ----------------
#NOTES:
     dance-single:
     :
     Hard:
     8:
     0.666,0.588,0.690,0.254,0.036:
0000
0000
0000
0000
0010
1000
0000
1010
,
0000
0010
1000
0010
0100
0010
0000
0110
,
0000
0000
0010
0000
0100
0000
0001
0000
0001
0000
0000
0001
0000
0000
1001
0000
,
0000
0000
0001
0000
1000
0000
0010
0000
0010
0000
0000
0010
0000
0000
1010
0000
,
0000
0010
1000
0010
1001
0000
0110
0000
,
0010
0100
0010
0000
0010
1000
0010
0000
,
0100
0001
0100
0000
0010
0100
0010
0000
,
0100
0001
0100
0000
0001
0010
0001
0000
,
0100
0010
1000
0000
0001
0010
0100
1000
,
0010
0100
0010
0000
0110
0000
1001
0000
,
0011
0011
0011
0000
0100
1000
0010
1000
,
0010
0100
0001
0000
0101
0000
1010
0000
,
0001
1000
0010
0000
0110
0000
0000
0001
,
1000
0000
0010
0000
1010
0000
0010
0100
,
0010
1000
0010
0100
0001
0000
0100
0010
,
1000
0100
1000
0020
0000
0130
0000
1001
,
0000
1000
0010
1000
0000
1010
0000
0100
,
0010
1000
0001
0100
1010
0000
0100
0010
,
1000
0010
0100
0001
1001
0000
1000
0001
,
1000
0010
0100
0010
0000
1000
0000
0001
,
0000
0100
0010
0000
1000
0010
0100
0010
,
2000
3000
0000
0000
0000
0000
0000
0000
0000
0000
0000
0000
0000
0000
0000
0000
0000
0000
0000
0000
0000
0000
0000
0000
0100
0000
0000
0000
0000
0000
0000
0000
0000
0000
0000
0000
0000
0000
0000
0000
0000
0000
0000
0000
0000
0000
0000
0000
1000
0000
0000
0000
0000
0000
0000
0000
0000
0000
0000
0000
0000
0000
0000
0000
0000
0000
0000
0000
0000
0000
0000
0000
0010
0000
0000
0000
0000
0000
0000
0000
0000
0000
0000
0000
0000
0000
0000
0000
0000
0000
0000
0000
0000
0000
0000
0000
1000
0000
0000
0000
0000
0000
0000
0000
0000
0000
0000
0000
0000
0000
0000
0000
0000
0000
0000
0000
0000
0000
0000
0000
0002
0000
0000
0000
0000
0000
0000
0000
0000
0000
0000
0000
0000
0000
0000
0000
0000
0000
0000
0000
0000
0000
0000
0000
0000
0000
0000
0000
0000
0000
0000
0000
0000
0000
0000
0000
0000
0000
0000
0000
0000
0000
0000
0000
0000
0000
0000
0000
1003
0000
0000
0000
0000
0000
0000
0000
0000
0000
0000
0000
0000
0000
0000
0000
0000
0000
0000
0000
0000
0000
0000
0000
,
0000
0010
1000
0010
0100
0002
0000
0013
,
0000
0001
1000
0001
0100
0002
0000
0013
,
0000
0001
1000
0010
1000
0020
0000
1030
,
0001
1000
0010
0100
0001
0010
0000
0011
,
0000
0001
0010
0100
0010
0001
0000
1001
,
0000
0000
0010
0000
1000
0000
0010
0000
1000
0000
0000
0010
0000
0000
1010
0000
,
0000
0000
0010
0000
1000
0000
0100
0000
0100
0000
0000
0100
0000
0000
1000
0000
,
0000
0010
1000
0010
1010
0000
0101
0000
,
0010
0100
0010
0000
0010
1000
0100
1000
,
0001
0010
0100
0000
0021
0000
0130
0000
,
0010
0001
0010
0000
0001
0010
0100
1000
,
0001
1000
0010
0000
1010
0000
0101
0000
,
0110
0110
0110
0000
0010
0100
0010
1000
,
0001
1000
0001
0000
1000
0010
1000
0001
,
0100
0010
1000
0010
1000
0000
1010
0000
,
0001
1000
0010
1000
0002
0000
0003
1000
,
0010
1000
0010
0000
1000
0010
1010
0000
,
0010
1000
1010
0000
0001
1000
1001
0000
,
0001
0100
0101
0000
1001
0000
0110
0000
,
1000
0001
0110
0000
0101
0000
1010
0000
,
0010
0100
1001
0000
0010
0100
0101
0000
,
0001
0010
0011
0000
1000
0001
0011
0000
,
0001
0100
0101
0000
1002
0000
0103
0000
,
1000
0001
1000
0100
0020
0000
0230
0000
,
2300
0000
3020
0000
1030
2000
0000
3010
,
0000
1000
0010
0100
0001
0200
0000
0310
,
0000
0100
0001
0010
0100
0020
0000
0031
,
0000
1000
0010
1000
0010
2000
0000
3010
,
0010
0100
0010
1000
0001
0010
0000
0011
,
0000
0001
1000
0010
0100
0001
0000
1001
,
0000
0000
0010
0000
0100
0000
0001
0000
1000
0000
0000
0010
0000
0000
1010
0000
,
0000
0000
1000
0000
0001
0000
0000
0000
1000
0000
0000
0010
0000
0000
0110
0000
,
0000
1000
0001
0100
2002
0000
0000
0000
,
0000
0000
3003
0000
1001
0000
0100
0010
,
0100
0001
0100
0010
1000
0000
0010
0100
,
0001
0010
0001
0200
0000
0310
0000
1001
,
0000
0001
0100
0001
0000
0101
0000
0010
,
0100
0001
1000
0000
0010
1000
1010
0000
,
0001
0100
0110
0000
0001
1000
0101
0000
,
0001
1000
1100
0000
0110
0000
1001
0000
,
0100
0010
0100
0001
2000
0000
3020
0000
,
0230
0000
0301
0000
0011
0011
0000
0000
,
0100
0000
0010
0000
0101
0110
0000
0000
,
0001
0000
0100
0000
0001
2000
0000
3010
,
0000
0100
0001
0100
0010
0100
0000
0001
,
0100
0001
1000
0000
1010
1010
0000
0000
,
1002
0000
0103
0000
0101
0110
0000
0000
,
2010
0000
0000
0000
3010
0000
0000
0000
1010
0000
0000
1010
0000
0000
1010
0000
,
0000
0000
0010
0000
0100
0000
0001
0000
0100
0000
0000
0110
0000
0000
0110
0000
,
0000
0001
1000
0010
2002
0000
0000
0000
,
3003
0000
0000
0000
;

//---------------dance-single - ----------------
#NOTES:
     dance-single:
     :
     Medium:
     5:
     0.420,0.490,0.390,0.200,0.000: // measure 1
0000
0000
0010
1000
,  // measure 2
0010
1010
0100
0001
,  // measure 3
0100
0101
0001
0001
,  // measure 4
0001
0001
1000
1000
,  // measure 5
0010
1000
0010
1010
,  // measure 6
0010
1000
0010
0000
0100
0000
0001
0000
,  // measure 7
0100
0001
0100
0000
0010
0000
1000
0000
,  // measure 8
0001
1000
0001
0000
0010
0000
0001
0000
,  // measure 9
0010
0001
0010
0000
0011
0000
1100
0000
,  // measure 10
0110
1001
0002
1003
,  // measure 11
0010
1000
0010
0000
0200
0000
0301
0000
,  // measure 12
0100
0010
0100
0000
0002
0000
1003
0000
,  // measure 13
0001
0010
0001
0000
0011
0000
0000
0000
,  // measure 14
0001
0001
1001
0000
,  // measure 15
1000
1000
1010
0000
,  // measure 16
0010
0010
0200
0310
,  // measure 17
0020
0130
0200
0310
,  // measure 18
0020
0130
0100
0000
,  // measure 19
0010
0010
0110
0000
,  // measure 20
0010
1000
0002
0000
,  // measure 21
2003
0000
0001
0001
,  // measure 22
0001
0000
3001
0000
0001
0001
0000
0000
,  // measure 23
0000
0000
0000
0000
1000
1000
0000
0000
,  // measure 24
0000
0000
0010
0100
,  // measure 25
0010
0110
0100
0010
,  // measure 26
0100
0110
0001
1000
,  // measure 27
0001
0001
1000
0001
,  // measure 28
1000
1000
0001
0000
,  // measure 29
1000
0000
0001
0000
,  // measure 30
1000
0000
0010
1000
,  // measure 31
0010
1010
0100
0001
,  // measure 32
0100
0001
0202
0303
,  // measure 33
0001
0001
1000
0010
,  // measure 34
1000
0010
1000
0000
1010
0000
0101
0000
,  // measure 35
1001
0110
1001
0011
,  // measure 36
1100
1010
0010
0010
,  // measure 37
0100
0010
0100
0000
0010
0000
0010
0000
,  // measure 38
0100
0010
0100
0010
0000
0000
0000
0000
,  // measure 39
0100
0100
0110
0000
,  // measure 40
0001
0001
1001
0000
,  // measure 41
1000
0010
2000
3010
,  // measure 42
0100
0001
0200
0310
,  // measure 43
0010
1000
1001
0000
,  // measure 44
0001
0010
0110
0000
,  // measure 45
0100
0000
1000
0000
0020
0000
0000
0030
,  // measure 46
0200
0000
0010
0010
,  // measure 47
0010
0000
0310
0000
0010
0010
0000
0000
,  // measure 48
0100
0000
0010
0000
0100
0100
0000
0000
,  // measure 49
0010
0100
0001
1000
,  // measure 50
0001
1001
0001
1000
,  // measure 51
0010
1010
0010
0100
,  // measure 52
0010
0010
0100
0010
,  // measure 53
0100
0100
0010
0000
,  // measure 54
0010
0000
0110
0000
,  // measure 55
1001
0000
1001
0000
,  // measure 56
0000
0000
1001
0000
,  // measure 57
0001
1000
1001
0000
,  // measure 58
0010
1000
0020
1030
,  // measure 59
0010
1000
0020
0130
,  // measure 60
0100
0010
0120
0030
,  // measure 61
0100
0000
0001
0000
0101
0000
0000
0001
,  // measure 62
0000
1000
0001
1000
,  // measure 63
0010
1000
1010
1001
,  // measure 64
0101
0000
1001
0000
0001
0001
0000
0000
,  // measure 65
1000
0000
0010
0000
1000
1000
0000
0000
,  // measure 66
0010
0000
1000
0000
0010
1000
0000
0000
,  // measure 67
0010
0000
1001
0000
0001
0100
0000
0000
,  // measure 68
0001
0000
0110
0000
0010
0100
0000
0000
,  // measure 69
0010
0000
1000
0000
0001
1000
0000
0000
,  // measure 70
0010
1000
0002
0000
,  // measure 71
2003
0000
3001
1000
,  // measure 72
0010
0100
2002
0000
,  // measure 73
3003
0000
0000
0000
;

//---------------dance-single - ----------------
#NOTES:
     dance-single:
     :
     Easy:
     3:
     0.267,0.294,0.154,0.127,0.000: // measure 1
0000
0000
1000
0000
,  // measure 2
0001
1000
0001
0000
,  // measure 3
1000
0010
2000
0000
,  // measure 4
0000
3000
0002
0000
,  // measure 5
0000
0003
1000
0000
,  // measure 6
0010
0000
1000
0000
,  // measure 7
0001
0000
1000
0000
,  // measure 8
0010
0000
0100
0000
,  // measure 9
0010
0000
1000
0010
,  // measure 10
1000
0010
0100
0001
,  // measure 11
0100
0001
0100
0000
,  // measure 12
0010
0000
1000
0000
,  // measure 13
0001
0000
1000
0000
,  // measure 14
0010
0010
0010
0000
,  // measure 15
0100
0100
0100
0000
,  // measure 16
0010
0000
1001
0000
,  // measure 17
1100
0000
1001
0000
,  // measure 18
0100
0100
0100
0000
,  // measure 19
0010
0010
0010
0000
,  // measure 20
0100
0010
0100
0000
,  // measure 21
0001
0000
1000
0001
,  // measure 22
1000
0001
1001
0000
,  // measure 23
0000
0000
0110
0000
,  // measure 24
0000
0000
0011
0000
,  // measure 25
0000
0000
1100
0000
,  // measure 26
0000
0000
1000
0000
,  // measure 27
0001
0000
1000
0000
,  // measure 28
0010
0000
0100
0100
,  // measure 29
0100
0000
0010
0010
,  // measure 30
0010
1000
0001
0000
,  // measure 31
1000
0000
0001
1000
,  // measure 32
0001
1000
0001
0000
,  // measure 33
1000
0000
0001
1000
,  // measure 34
0010
0100
0010
0000
,  // measure 35
0100
0000
0010
0100
,  // measure 36
0010
0100
0010
0000
,  // measure 37
1000
0000
0001
0000
,  // measure 38
1000
0001
1000
0000
,  // measure 39
0010
0000
1001
0000
,  // measure 40
0001
0000
0101
0000
,  // measure 41
0100
0000
0110
0000
,  // measure 42
0010
0000
1010
0000
,  // measure 43
0010
0010
0010
0000
,  // measure 44
0100
0100
0100
0000
,  // measure 45
0001
0001
1000
0000
,  // measure 46
1000
0001
0001
1000
,  // measure 47
0001
1000
0020
0000
,  // measure 48
0000
0030
0200
0000
,  // measure 49
0000
0300
0010
0000
,  // measure 50
0100
0000
0010
0100
,  // measure 51
0010
0100
0010
0000
,  // measure 52
1000
0000
0001
0000
,  // measure 53
1000
0000
1001
0000
,  // measure 54
0110
0000
1001
0000
,  // measure 55
0110
0000
2002
0000
,  // measure 56
3003
0000
0001
0000
,  // measure 57
1000
0001
1000
0000
,  // measure 58
0001
0001
1000
0001
,  // measure 59
1000
1000
0001
1000
,  // measure 60
0001
1000
0010
0000
,  // measure 61
0100
0001
0010
0000
,  // measure 62
0100
1000
0010
0000
,  // measure 63
0100
0000
0020
0000
,  // measure 64
0230
0000
0320
0000
,  // measure 65
0000
0030
0200
0000
,  // measure 66
0000
0300
0010
0000
,  // measure 67
0100
0010
0100
0000
,  // measure 68
0001
0001
1000
0000
,  // measure 69
0001
1000
0001
0000
,  // measure 70
1000
0010
0200
0000
,  // measure 71
0310
0000
0020
0000
,  // measure 72
0130
0000
2002
0000
,  // measure 73
3003
0000
0000
0000
;
