#TITLE:Night Of Fire;
#SUBTITLE:;
#ARTIST:Niko;
#TITLETRANSLIT:;
#SUBTITLETRANSLIT:;
#ARTISTTRANSLIT:;
#CREDIT:;
#BANNER:Night Of Fire-bn.png;
#BACKGROUND:Night Of Fire-bg.png;
#LYRICSPATH:;
#CDTITLE:Super Eurobeat 082.png;
#MUSIC:Night Of Fire.mp3;
#OFFSET:-9.572;
#SAMPLESTART:53.630;
#SAMPLELENGTH:12.000;
#SELECTABLE:YES;
#BPMS:0.000=155.100;
#STOPS:240.000=0.290
;
#BGCHANGES:;

//---------------dance-single - ----------------
#NOTES:
     dance-single:
     :
     Beginner:
     1:
     0.144,0.164,0.099,0.054,0.000:
0010
0000
0000
0000
,
0100
0000
0000
0000
,
0010
0000
0000
0000
,
0200
0000
0000
0000
,
0300
0000
0010
0000
,
0100
0000
0010
0000
,
0100
0000
0001
0000
,
1000
0000
0001
0000
,
1000
0000
0010
0000
,
1000
0000
0010
0000
,
1000
0000
0100
0000
,
0001
0000
0200
0000
,
0000
0000
0310
0000
,
0000
0000
0100
0000
,
0010
0000
0200
0000
,
0000
0000
0000
0000
,
0300
0000
0001
0000
,
0000
0000
0010
0000
,
0001
0000
2000
0000
,
0000
0000
0000
0000
,
3000
0000
0010
0000
,
0100
0000
0010
0000
,
0100
0000
0110
0000
,
0000
0000
1001
0000
,
0000
0000
0001
0000
,
0010
0000
0100
0000
,
0010
0000
1010
0000
,
0000
0101
0000
0000
,
0000
0000
0010
0010
,
0010
0000
0000
0100
,
0000
0010
0000
1000
,
0000
0001
0000
1000
,
0000
0010
0100
0010
,
0100
0000
0001
0000
,
0000
0000
1000
0000
,
0000
0000
0010
0000
,
0100
0000
0001
0001
,
0001
0000
1000
0000
,
0010
0000
1000
0000
,
0100
0000
1000
0000
,
0010
0000
0100
0001
,
0100
0000
0010
0000
,
1000
0000
0001
0000
,
1000
0000
0010
0000
,
0000
0000
0110
0000
,
0000
0000
0001
0000
,
0000
0000
1000
0000
,
0001
0000
0010
0000
,
1000
0000
0100
0000
,
0010
0000
0100
0000
,
0010
0000
0001
0000
,
1000
0000
0001
0000
,
1000
0000
0020
0000
,
0130
0000
0000
0000
,
1001
0000
0000
0000
,
0110
0000
0000
0000
,
1001
0000
0000
0000
,
0011
0000
0000
0000
,
1100
0000
0000
0000
,
0110
0000
0000
0000
,
2002
0000
0000
0020
,
0030
0000
0000
0000
;

//---------------dance-single - ----------------
#NOTES:
     dance-single:
     :
     Easy:
     3:
     0.269,0.274,0.180,0.099,0.000:
1000
0010
1000
0000
,
0200
0000
0000
0000
,
0320
0000
0000
0000
,
0130
0000
0000
0000
,
1001
0000
0001
0000
,
1000
0000
0001
0001
,
0001
1000
0010
0000
,
0100
0000
0010
0010
,
0100
0010
0010
0010
,
0010
0000
0100
0100
,
0100
0000
0001
0001
,
0001
0000
1000
1000
,
1000
0000
0010
1000
,
0010
1010
0100
0001
,
0100
0010
0200
0000
,
0000
0000
0000
0000
,
0000
0000
0301
0010
,
0001
0011
0001
0100
,
1000
0010
0200
0000
,
0000
0000
0000
0000
,
0000
0300
0001
1000
,
0001
1000
0100
1000
,
0100
1000
0010
0000
,
0100
0000
0110
0000
,
1001
0000
0001
0100
,
0001
0010
0010
1000
,
0100
1000
1010
0000
,
0101
0000
1010
0000
,
0110
0000
0100
0010
,
0200
0000
0301
0001
,
0001
0001
0000
1000
,
1000
1000
1000
0010
,
0100
0010
0100
0001
,
0200
0000
0301
0010
,
0001
0010
0001
0100
,
1000
0010
0100
0001
,
0010
0100
0010
1000
,
0200
0000
0300
1000
,
0001
1000
0000
0001
,
0010
0001
0100
1000
,
0010
0100
0001
0010
,
0200
0000
1300
0010
,
1000
0020
0030
1000
,
0010
0100
0001
0010
,
0100
0010
0001
1000
,
0001
0000
0100
0100
,
0010
0100
1000
0010
,
1000
0000
0001
0010
,
0001
0100
1000
0010
,
1000
0000
0001
0010
,
0100
1000
0001
0100
,
1000
0000
0001
0010
,
0100
0001
1000
0010
,
1010
0000
1010
0000
,
0101
0000
0101
0000
,
1010
0000
1010
0000
,
0110
0000
1001
0000
,
0010
1000
0020
0030
,
1010
0000
0101
0000
,
0100
0010
0100
0000
,
1001
0010
1000
0020
,
0030
0000
0000
0000
;

//---------------dance-single - ----------------
#NOTES:
     dance-single:
     :
     Medium:
     5:
     0.378,0.411,0.135,0.251,0.000:
0010
0000
1000
0000
0010
1000
0000
0000
,
0200
0000
0000
0000
,
0320
0000
0000
0000
,
0130
0000
0000
0100
0000
0000
0110
0000
,
1001
0000
0000
0000
0001
1000
0001
0000
,
0010
0100
0020
0130
,
2000
0000
3100
0000
0001
0100
0001
0000
,
1000
0001
2000
3010
,
0020
0000
0130
0000
0010
0100
0010
0000
,
0001
1000
0002
1003
,
2000
0000
3100
0000
1000
0100
2000
0000
,
3010
0000
1000
0000
0010
0000
0000
0100
,
0000
0000
0001
0000
0001
0100
0001
0000
,
1000
0000
0010
0000
0100
0010
0100
0000
,
0001
0100
2000
0000
,
0000
0000
3020
0000
,
0000
0000
0130
0010
,
0100
0010
0100
0000
0001
0000
0100
0000
,
1000
0100
1000
0010
2000
0000
0000
0000
,
0000
0000
3200
0000
,
0000
0000
1300
0010
,
1000
1010
0001
0100
,
0010
0000
0110
0000
0010
0100
0000
0000
,
0001
1000
0000
0000
0100
0010
0000
0000
,
0001
1000
0000
0000
0100
0000
1000
0000
,
0010
0000
0100
0000
0001
0100
0001
0000
,
0010
0100
0110
0000
,
1001
0000
0000
0110
0000
0000
0001
0000
,
2000
0000
3010
1000
,
0010
1000
0000
0000
0100
0000
0100
0000
,
0100
0100
0010
0010
,
0010
0000
0010
0000
1000
0010
1000
0000
,
0001
0100
0001
0010
,
0100
0010
0000
0000
0001
0000
1000
0000
,
0001
1000
0010
0100
,
0010
0100
0010
0000
0001
0000
0100
0000
,
1010
0101
0001
0010
,
0010
1000
0000
0000
0100
0000
1000
0000
,
0010
1000
0010
0000
0100
0000
0001
0000
,
0010
0100
0010
0000
0001
0000
0100
0000
,
0020
0130
0100
0010
,
1000
0001
0000
0000
0100
0000
1000
0000
,
0010
1000
0010
0000
0100
0000
0001
0000
,
0010
0100
0010
0000
0001
0000
0100
0000
,
1000
0000
0010
0000
1010
0010
1010
0000
,
1001
1000
2000
3100
,
0200
0000
0010
0300
0001
0010
0001
0000
,
1000
0010
0020
0130
,
0200
0000
0301
0000
0001
1000
0001
0000
,
0100
0000
1000
0000
2000
0000
0100
3000
,
0020
0000
1000
0030
0100
1000
0001
0000
,
0010
0000
0100
0000
0010
0000
0000
0100
,
0000
0010
1001
0001
,
0001
1000
0001
0000
0010
0000
0100
0000
,
0010
0100
0010
0100
0010
0000
0001
0000
,
0100
1000
0100
1000
0100
0000
1000
0000
,
0001
0010
0001
0010
0001
0000
0100
0000
,
0010
0100
0010
0100
0020
0000
0130
0000
,
0001
0100
0001
0100
0002
0000
0103
0000
,
1000
0010
1000
0010
1000
0000
0100
0000
,
2002
3003
0002
0000
0013
0000
2002
0000
,
3003
0000
0000
0000
;

//---------------dance-single - ----------------
#NOTES:
     dance-single:
     :
     Hard:
     9:
     0.594,0.495,0.377,0.251,0.184: // measure 1
1010
0000
0110
0000
1000
0010
1000
0000
,  // measure 2
0200
0000
1000
1000
,  // measure 3
2300
0001
0010
3100
,  // measure 4
1010
0000
0000
0010
0000
0000
0010
0000
0000
0100
0000
0000
0100
0000
0000
0000
,  // measure 5
2002
0000
3003
0000
0001
0100
0001
0100
,  // measure 6
0010
0000
0100
0000
0010
0000
0100
0000
0001
0000
0000
0001
0000
0000
1001
0000
,  // measure 7
0000
0001
0000
0000
0001
0000
1000
0000
0100
0000
0010
0000
0100
0000
0010
0000
,  // measure 8
0100
0000
1000
0000
0100
0000
1000
0000
0100
0000
0000
0100
0000
0000
0110
0000
,  // measure 9
0000
0100
0000
0000
0010
0000
0001
0000
0010
0000
0001
0000
0010
0000
0001
0000
,  // measure 10
0100
0000
0001
0000
0100
0000
0001
0000
1000
0000
0000
1000
0000
0000
1001
0000
,  // measure 11
0000
1000
0000
0000
0001
0000
0100
0000
0010
0000
1000
0000
0010
0000
1000
0000
,  // measure 12
0001
0000
0100
0000
0001
0000
0100
0000
0001
0000
0000
1010
0000
0000
0100
0000
,  // measure 13
0000
0101
0000
0000
0001
0000
0100
0000
0100
0000
0001
0000
0100
0000
0010
0000
,  // measure 14
0100
0001
2010
0000
3100
1000
0001
0010
,  // measure 15
0100
1000
0010
0100
0001
2000
0000
3020
,  // measure 16
0000
0230
0000
0301
0000
1010
0000
0101
,  // measure 17
0000
1010
0000
0001
0010
0100
1000
0001
,  // measure 18
0100
0010
0210
0000
0301
1000
0100
1000
,  // measure 19
0001
0100
0010
1000
0001
0010
0100
1000
,  // measure 20
0010
0000
0100
0000
0002
0000
0000
0000
1003
0000
0000
1001
0000
0000
0100
0000
,  // measure 21
0000
0110
0000
0000
0100
0000
0010
0000
0200
0000
0000
0000
0001
0000
0000
0000
,  // measure 22
0010
0000
0301
0000
0001
0100
0010
0100
,  // measure 23
0001
0100
0010
0000
0010
0220
0000
0330
,  // measure 24
0100
2200
0000
3300
0001
0100
0010
0100
,  // measure 25
0001
1000
0100
1000
0020
0000
1000
0000
,  // measure 26
0100
0000
1030
0000
1000
0010
1000
0001
,  // measure 27
0100
0010
1000
0000
2001
0000
3010
0000
,  // measure 28
0210
0000
0301
0000
0001
1000
0100
1000
,  // measure 29
0010
0100
0000
0000
1001
0000
0110
0000
,  // measure 30
0001
0100
0002
0000
0013
0100
1000
0001
,  // measure 31
1000
0001
0100
0000
0100
0001
0010
0100
,  // measure 32
1000
0010
1000
0010
0100
0010
1000
0001
,  // measure 33
0010
0011
2001
3010
,  // measure 34
0010
1000
0020
0000
1030
0010
1000
0100
,  // measure 35
0010
0001
0100
0000
0001
1000
0100
0010
,  // measure 36
0001
0100
0010
1000
0000
0010
0100
0001
,  // measure 37
0100
0110
0011
1010
,  // measure 38
1000
0010
2000
0000
3100
0010
0001
1000
,  // measure 39
0001
1000
0010
0000
0010
1000
0100
0010
,  // measure 40
0001
0100
0001
0100
0010
0100
0001
1000
,  // measure 41
0100
1100
1002
0103
,  // measure 42
0100
0001
0200
0000
0301
0100
0001
0010
,  // measure 43
0100
1000
0010
0000
1000
0001
0010
0100
,  // measure 44
1000
0010
0100
0001
0000
0100
0010
1000
,  // measure 45
0010
0000
1010
0000
1000
0010
1000
0010
,  // measure 46
0100
0000
0001
0000
0010
0000
0100
0000
1000
0000
0000
0101
0000
0000
0101
0000
,  // measure 47
0000
0101
0000
0000
0001
0000
0100
0000
0010
0000
1000
0000
0010
0000
1000
0000
,  // measure 48
0010
0000
0100
0000
0010
0000
0100
0000
0010
0000
0000
1010
0000
0000
1010
0000
,  // measure 49
0000
1010
0000
0000
0100
0000
0001
0000
0100
0000
0001
0000
0010
0000
0100
0000
,  // measure 50
1000
0000
0010
0000
0100
0000
0001
0000
1000
0000
0000
0101
0000
0000
0101
0000
,  // measure 51
0000
0101
0000
0000
0001
0000
0010
0000
1000
0000
0100
0000
1000
0000
0100
0000
,  // measure 52
0001
0000
0010
0000
0001
0000
0010
0000
0001
0000
0000
1100
0000
0000
0010
0000
,  // measure 53
0000
0011
0000
0000
0001
0000
1000
0000
0020
0000
0000
0000
0130
0000
0000
0000
,  // measure 54
0010
1000
0000
0010
1000
0000
0010
1000
0000
0000
0001
0000
0100
0000
0010
0000
,  // measure 55
0100
0001
0000
0100
0001
0000
0100
0010
0000
0000
1000
0000
0100
0000
0000
0000
,  // measure 56
1000
0001
0000
1000
0001
0000
1000
0001
0000
0000
1000
0000
0100
0000
0010
0000
,  // measure 57
0001
0010
0000
0001
0010
0000
0001
0010
0000
0000
0100
0000
1000
0000
0000
0000
,  // measure 58
0010
1000
0000
0010
1000
0000
0010
0100
0000
0000
0001
0000
1000
0000
0100
0000
,  // measure 59
0010
0001
0000
0010
0001
0000
0010
0100
0000
0000
1000
0000
0010
0000
0000
0000
,  // measure 60
1000
0010
0000
1000
0010
0000
1000
0100
0000
0000
1000
0000
0001
0000
2000
0000
,  // measure 61
0000
3000
1000
0000
0001
0000
2002
0000
,  // measure 62
0000
3003
0000
0000
;

//---------------dance-single - Steps by Trickie----------------
#NOTES:
     dance-single:
     Steps by Trickie:
     Challenge:
     15:
     0.776,0.797,0.368,0.117,0.714:
0001
0001
0001
0001
,
0001
0010
0000
0001
0100
0000
0001
1000
0000
0001
0100
0000
0001
0010
0000
0001
,
1000
0000
0100
0000
0010
0000
0001
0000
1000
0010
1000
0010
0100
0010
0001
0010
,
0100
1000
0100
0010
0100
0001
0100
1000
0100
0010
1000
0100
0010
0001
0100
0000
,
0020
0000
0000
0030
1000
1100
0100
0010
,
0001
1000
0010
0100
0000
1000
0100
0001
1000
0100
0001
1000
0010
0001
1000
0010
,
0001
1000
0100
0001
0010
0100
0001
1000
0010
0000
0011
0000
0001
0000
0100
0000
,
0010
1000
0100
0010
0000
0001
0010
1000
0001
0100
1000
0010
0001
1000
0100
0001
,
0010
1000
0001
0100
1000
0010
0100
0001
1000
0000
1100
0000
0100
0000
0010
0000
,
0001
1000
0010
0100
0000
1000
0100
0001
1000
0100
0001
1000
0010
0001
1000
0010
,
0001
1000
0100
0001
0010
0100
0001
1000
0010
0000
0011
0000
0001
0000
0100
0000
,
0010
1000
0100
0010
0000
0001
0010
1000
0001
0100
1000
0010
0001
1000
0100
0001
,
0010
1000
0001
0100
1000
0010
0100
0001
1000
0000
0100
0000
0010
0000
0100
0000
,
1000
0100
0010
0000
0011
0001
0100
0001
,
0101
0000
0100
0000
0010
0000
1000
0000
0001
0000
0100
0000
0010
1000
0010
0000
,
1000
0100
1000
0010
0000
0010
1000
0000
0001
0100
1000
0001
0010
1000
0001
0010
,
1000
0001
0100
1000
0010
0001
1000
0100
0001
0000
0010
0000
0001
0000
1000
0000
,
0001
0100
0010
0000
1010
1000
0010
0100
,
0101
0000
0001
0000
1000
0000
0100
0000
0100
0000
0010
0000
0001
0010
0001
0000
,
0010
0001
0100
0010
0000
0010
1000
0100
0001
1000
0010
0001
1000
0010
0001
1000
,
0100
0001
0010
0100
1000
0010
0100
0001
0010
0000
0100
0000
1000
0000
0100
0000
,
0000
0010
0000
0001
0000
1000
0010
0100
,
1000
0000
0100
0000
0110
0010
1000
0001
,
0110
0110
0001
1000
1010
0100
0001
2000
,
0000
3100
0100
0100
0020
0000
0032
2003
,
0000
3200
0000
2300
0000
3010
0100
1000
,
0200
0310
2010
3001
,
0102
0000
1003
0100
0000
0100
0100
0100
,
0100
0110
0000
0000
1001
0000
0110
0000
,
0100
1000
0001
0000
0010
0100
0010
0001
,
1000
0010
0100
0000
1000
0100
0001
1000
,
0010
0100
0001
1000
0000
1000
0100
0000
,
1100
0011
0110
1001
,
0100
1001
0000
0010
0000
1000
0100
1000
,
0010
0100
0001
0000
0010
0001
0100
0001
,
0010
0100
1000
0010
0000
0100
1000
0100
,
0001
0010
1001
0110
,
0010
1001
0000
0010
0000
0001
1000
0010
,
0100
0001
1000
0000
1000
0100
1000
0001
,
0010
0001
1000
0100
0000
0010
0100
1000
,
0010
0100
0110
1001
,
0001
0010
1000
0010
0000
0001
1000
0010
,
0100
0001
1000
0000
1000
0100
1000
0010
,
0100
0001
0010
0100
0000
0110
0101
1100
,
0110
0000
1001
0000
0001
0011
0010
0100
,
1000
0001
0100
0010
0000
0001
0010
1000
0001
0010
1000
0001
0100
1000
0001
0100
,
1000
0001
0010
1000
0100
0010
1000
0001
0100
0000
1100
0000
1000
0000
0010
0000
,
0100
0001
0010
0100
0000
1000
0100
0001
1000
0010
0001
0100
1000
0001
0010
1000
,
0100
0001
1000
0010
0001
0100
0010
1000
0001
0000
0011
0000
0010
0000
0100
0000
,
1000
0001
0100
0010
0000
0001
0010
1000
0001
0010
1000
0001
0100
1000
0001
0100
,
1000
0001
0010
1000
0100
0010
1000
0001
0100
0000
1100
0000
1000
0000
0010
0000
,
0100
0001
0010
0100
0000
1000
0100
0001
1000
0010
0001
0100
1000
0001
0010
1000
,
0100
0001
1000
0010
0001
0100
0010
1000
0110
0000
0000
0000
1001
0000
0000
0000
,
0010
1000
0000
0010
0100
0000
0010
1000
0000
0000
0001
0000
0100
0000
0001
0000
,
0010
0001
0000
0100
0001
0000
0010
0100
0000
0000
0000
0000
1000
0000
0000
0000
,
0010
1000
0000
0100
1000
0000
0010
0100
0000
0000
0001
0000
0010
0000
1000
0000
,
0010
0001
0000
0010
0100
0000
0010
1000
0000
0000
0000
0000
0010
0000
0000
0000
,
0001
1000
0000
0010
0100
0000
1000
0100
0000
0000
0010
0000
1000
0000
0100
0000
,
0010
1000
0000
0010
0001
0000
1000
0010
0000
0000
0000
0000
0100
0000
0000
0000
,
0001
0100
0000
1000
0100
0000
0010
1000
0000
0000
0100
0000
0010
0000
1000
0000
,
0020
0030
0000
0000
1001
0000
0000
0000
0110
0000
0000
0000
0010
0000
2002
0000
,
0000
3003
0000
0000
;
