#TITLE:Natural;
#SUBTITLE:(Almighty Mix);
#ARTIST:S Club 7;
#TITLETRANSLIT:;
#SUBTITLETRANSLIT:;
#ARTISTTRANSLIT:;
#CREDIT:;
#BANNER:Natural (Almighty Mix)-bn.PNG;
#BACKGROUND:Natural (Almighty Mix)-bg.PNG;
#LYRICSPATH:;
#CDTITLE:cd.png;
#MUSIC:Natural (Almighty Mix).mp3;
#OFFSET:-7.360;
#SAMPLESTART:38.070;
#SAMPLELENGTH:12.000;
#SELECTABLE:YES;
#BPMS:0.000=132.510;
#STOPS:;
#BGCHANGES:;

//---------------dance-single - ----------------
#NOTES:
     dance-single:
     :
     Hard:
     9:
     0.618,0.555,0.265,0.053,0.367:
0100
0000
1000
0000
0010
0000
1000
0010
0000
1000
0001
0000
1000
0000
0001
0000
,
0100
0001
0100
0000
0001
0000
0100
0010
0000
0100
0010
0000
0100
0000
0001
0000
,
1000
0001
1000
0000
0001
0000
1000
0100
0000
1000
0100
0000
1000
0000
0100
0000
,
0010
0100
0010
0000
0100
0000
0010
0001
0000
0010
0001
0000
0010
0000
0100
0000
,
1000
0001
1000
0000
0001
0000
1000
0010
0000
1000
0001
0000
1000
0000
0010
0000
,
0100
0001
0100
0000
0001
0000
0100
0001
0000
0010
0001
0000
0100
0000
0001
0000
,
1000
0010
1000
0000
0100
0000
1000
0100
0000
1000
0100
0000
0010
0000
0001
0000
,
1000
0001
1000
0000
0001
0000
0010
0100
0000
0010
0001
0000
0100
0000
0001
0000
,
0011
0000
0001
0010
0100
1000
0010
0100
,
0001
0010
0100
1000
0000
1001
0000
0010
,
1000
0100
0010
0001
0100
0010
1000
0100
,
0010
0000
0000
0010
0000
0000
0020
0000
0000
0000
0000
0000
0000
0000
0000
0000
,
0031
0100
0010
0100
0001
0100
0010
1000
,
0100
0010
0001
1000
0000
1001
0000
1000
,
0010
0100
0100
0100
0010
0010
0000
1000
,
0001
0100
0010
1000
0001
0100
0001
0200
,
0000
0320
0000
2030
0000
3002
0000
0013
,
1001
0000
0100
1000
0010
0010
0100
0100
,
1001
0000
1000
0001
0001
1000
0001
1000
,
0011
0000
0001
0100
0010
0010
0100
0100
,
1001
0000
0000
0000
1100
0000
0000
0000
0011
0000
0000
0000
1001
0000
0000
0100
,
1000
0001
0010
0100
0100
0100
0010
0010
,
1001
0000
0001
1000
1000
0001
1000
0001
,
1100
0000
1000
0010
0100
0100
0010
0010
,
1001
0000
0000
0000
0011
0000
0000
0000
1100
0000
0000
0010
1000
0000
0000
0001
,
0100
0000
0001
0000
0100
0000
0001
0100
0000
0001
1000
0000
0001
0000
1000
0000
,
0010
1000
0010
0000
1000
0000
0010
0100
0000
0010
0100
0000
0010
0000
1000
0000
,
0001
1000
0001
0000
1000
0000
0001
0010
0000
0001
0010
0000
0001
0000
0010
0000
,
0100
0010
0100
0000
0010
0000
0100
1000
0000
0100
1000
0000
0100
0000
0010
0000
,
0001
1000
0001
0000
1000
0000
0001
0100
0000
0001
1000
0000
0001
0000
0100
0000
,
0010
1000
0010
0000
1000
0000
0010
1000
0000
0100
1000
0000
0010
0000
1000
0000
,
0001
0100
0001
0000
0010
0000
0001
0010
0000
0001
0010
0000
0100
0000
1000
0000
,
0001
1000
0001
0000
1000
0000
0100
0010
0000
0100
1000
0000
0010
0000
0000
0000
,
1000
0010
1000
0010
1000
1000
0010
1000
,
0010
0100
0001
0100
0000
0101
0000
0010
,
0100
0001
0001
1000
0010
1000
0100
1000
,
0010
0000
0000
0010
0000
0000
0010
0000
0200
0000
0000
0000
0310
0000
0000
0000
,
0100
0010
1000
1000
0010
0010
1000
0001
,
1000
0001
0010
0001
0000
0011
0000
1100
,
0000
1000
1000
0010
0010
0100
0100
0001
,
0001
0010
0100
1000
0001
0010
0001
0010
,
0000
0010
0011
0000
0001
0001
1000
1000
,
1010
0000
0010
0010
1000
0010
1000
0010
,
1010
0000
0010
0100
0001
0010
0100
0010
,
0110
0000
0000
0001
0010
0000
0000
0100
0010
0000
0000
0001
0010
0000
0000
0001
,
1000
0010
0010
1000
1000
0010
0100
0010
,
0101
0000
0001
0100
0010
1000
0001
0010
,
0110
0000
0100
0100
0010
0001
1000
0010
,
1010
0000
0000
0000
0101
0000
0000
0000
1010
0000
0000
0001
0100
0000
0000
0010
,
1000
0010
1000
0000
0010
0000
0100
0001
0000
0001
0100
0000
0010
0000
0000
0000
,
0100
0001
0000
0100
0010
0000
0100
0010
0000
0100
0010
0000
1000
0000
0000
0000
,
0001
1000
0001
0000
1000
0000
0010
1000
0000
0010
1000
0000
0010
0000
0100
0000
,
0010
0000
0000
1000
0001
0000
0000
0100
0010
0000
0000
1000
0001
0000
0000
0010
,
0001
0010
0000
0001
0010
0000
0001
0010
0000
0001
0010
0000
0100
0000
1000
0000
,
0010
1000
0010
0000
1000
0000
0010
1000
0000
0010
1000
0000
0001
0000
0100
0000
,
0010
0100
0010
0000
0100
0000
0001
0100
0000
0010
0100
0000
0001
0000
1000
0000
,
0110
0000
0000
0000
1001
0000
0000
0000
0110
0000
0000
0001
1000
0000
0000
0010
,
0100
0000
0000
0000
;

//---------------dance-single - ----------------
#NOTES:
     dance-single:
     :
     Medium:
     6:
     0.473,0.430,0.257,0.442,0.000:
0002
0000
1003
0000
0010
1000
0010
0000
,
0200
0000
0301
0000
0010
0001
0010
0000
,
0200
0000
1300
0000
0010
1000
0010
0000
,
0200
0000
0310
0000
1000
0001
1000
0000
,
0002
0000
0013
0000
0001
0010
0001
0000
,
2000
0000
3010
0000
0100
0010
0100
0000
,
0002
0000
1003
0000
0100
1000
0100
0000
,
2000
3020
0230
0301
,
1001
0000
0001
1000
0001
0000
1000
0000
,
2000
3020
0230
0301
,
0010
0001
0010
0000
0001
0000
1000
0000
,
0020
0130
0020
2030
,
3001
0000
1000
0001
1000
0000
0010
0000
,
1000
0100
1100
0011
,
0001
1000
0001
0000
1000
0001
1000
0000
,
0010
0000
0010
0000
0100
0100
0100
0010
,
0000
2000
0000
3020
0000
0230
0000
0301
,
0010
0000
1001
0000
1000
0010
1000
0001
,
0200
0000
0310
0010
1000
0001
0010
0001
,
0020
0000
0031
0010
0001
1000
0010
1000
,
0010
1010
0101
1001
,
0011
0000
1100
0000
0001
1000
0001
1000
,
0020
0000
1030
0100
1000
0001
0010
0100
,
2000
0000
3001
0010
0100
1000
0001
0100
,
0010
1001
0011
1001
,
2000
0000
3001
0000
0100
0001
0100
0000
,
0020
0000
1030
0000
0100
1000
0100
0000
,
0020
0000
0031
0000
0100
0001
0100
0000
,
0020
0000
0130
0000
0001
1000
0001
0000
,
2000
0000
3100
0000
1000
0100
1000
0000
,
0002
0000
0103
0000
0010
0100
0010
0000
,
2000
0000
3001
0000
0010
0001
0010
0000
,
0002
0203
0320
1030
,
1001
0000
0001
1000
0001
0000
0010
0001
,
0020
0030
0002
0000
0203
0000
0310
0000
,
1000
0010
1000
0000
0010
0100
0010
0000
,
0020
0000
0000
0000
0100
0000
0100
0030
,
0100
0010
0100
0000
0001
0000
1000
0000
,
0001
0010
0001
0000
0100
0000
1010
0000
,
0100
1000
0100
0000
0010
0001
0010
0000
,
0001
0100
0001
0000
0010
0001
1000
0001
,
0000
0001
1000
0000
0001
0100
0001
1000
,
0020
0000
0130
0100
0001
1000
0100
1000
,
0200
0000
1300
0100
1000
0001
0100
0001
,
0100
0101
1010
1001
,
1100
0000
0011
0000
1000
0001
1000
0001
,
0200
0000
0301
0010
0001
1000
0100
0010
,
0002
0000
1003
0100
0010
0001
1000
0010
,
0100
1001
1100
1001
,
0002
1003
0010
0100
,
0020
0130
0001
1000
,
0002
0013
0100
0010
,
0011
0011
1100
1100
,
0020
0000
1030
0000
0010
1000
0010
0000
,
0200
0000
0301
0000
0010
0001
0010
0000
,
0200
0000
0310
0000
0001
1000
0010
0000
,
1010
1001
0020
1030
,
2002
3003
0000
0000
;

//---------------dance-single - ----------------
#NOTES:
     dance-single:
     :
     Easy:
     4:
     0.273,0.353,0.230,0.239,0.000: // measure 1
2000
0000
3010
0100
,  // measure 2
0002
0000
0013
0100
,  // measure 3
0200
0000
1300
0010
,  // measure 4
0200
0000
0301
0010
,  // measure 5
2002
3003
0010
0100
,  // measure 6
0201
0000
0310
0001
,  // measure 7
2200
3300
0001
0010
,  // measure 8
2002
0003
3010
0001
,  // measure 9
1001
0010
1000
0100
,  // measure 10
2000
0000
0010
3000
,  // measure 11
0001
0010
0100
0001
,  // measure 12
2200
0000
0000
3300
,  // measure 13
0001
0010
0100
1000
,  // measure 14
0020
0000
0200
0330
,  // measure 15
0001
0100
1000
0010
,  // measure 16
0002
0003
2000
3000
,  // measure 17
0020
0000
0000
0030
,  // measure 18
1001
0000
0100
1000
,  // measure 19
0010
0000
0100
0001
,  // measure 20
0010
0000
0001
0100
,  // measure 21
1001
0000
0101
0000
,  // measure 22
1001
0000
0010
0100
,  // measure 23
0100
0000
1000
0010
,  // measure 24
0100
0000
0001
0010
,  // measure 25
0100
0000
0001
0000
,  // measure 26
1001
0000
0010
1000
,  // measure 27
0100
0000
0001
0010
,  // measure 28
0001
0000
0100
1000
,  // measure 29
0010
0000
0001
0100
,  // measure 30
2000
0000
3010
0100
,  // measure 31
0002
0000
0013
0100
,  // measure 32
0020
0000
1030
0001
,  // measure 33
0200
0000
0000
0300
,  // measure 34
1001
0010
0100
0001
,  // measure 35
0200
0000
0000
0310
,  // measure 36
0001
0100
1000
0010
,  // measure 37
0002
0000
2000
3003
,  // measure 38
0010
0100
0001
0100
,  // measure 39
0200
0000
0310
0000
,  // measure 40
0001
0100
1000
0001
,  // measure 41
1001
0010
0100
0001
,  // measure 42
1001
0000
0010
0100
,  // measure 43
1001
0000
0100
1000
,  // measure 44
0010
0000
0001
0100
,  // measure 45
0010
0000
1001
0000
,  // measure 46
0101
0000
0001
0010
,  // measure 47
0100
0000
0001
0100
,  // measure 48
0100
0000
0010
1000
,  // measure 49
1001
0000
0101
0000
,  // measure 50
1001
0010
0100
0000
,  // measure 51
0001
0100
1000
0000
,  // measure 52
0010
0100
0001
0000
,  // measure 53
1001
0000
1100
0000
,  // measure 54
1001
0010
0100
0000
,  // measure 55
0001
0010
0100
0000
,  // measure 56
0100
1000
0010
0000
,  // measure 57
1001
0000
0101
0000
,  // measure 58
1001
0000
0000
0000
;
