#TITLE:My Name Is B.E.C.K.Y.;
#SUBTITLE:(Horror Line V.I.P.);
#ARTIST:Becky;
#TITLETRANSLIT:;
#SUBTITLETRANSLIT:;
#ARTISTTRANSLIT:;
#CREDIT:;
#BANNER:My Name Is B.E.C.K.Y. (Horror Line V.I.P.)-bn.png;
#BACKGROUND:My Name Is B.E.C.K.Y. (Horror Line V.I.P.)-bg.png;
#LYRICSPATH:;
#CDTITLE:Diskowarp Music.png;
#MUSIC:My Name Is B.E.C.K.Y. (Horror Line V.I.P.).mp3;
#OFFSET:-5.670;
#SAMPLESTART:38.510;
#SAMPLELENGTH:12.000;
#SELECTABLE:YES;
#BPMS:0.000=175.010;
#STOPS:;
#BGCHANGES:;

//---------------dance-single - ----------------
#NOTES:
     dance-single:
     :
     Hard:
     9:
     0.732,0.674,0.484,0.265,0.292:
0001
1000
0000
0000
0001
1000
0000
0000
0100
1000
0000
0000
0100
1000
0000
0000
,
0010
1000
0000
0000
0010
1000
0000
0000
0010
0100
0000
0000
0010
0100
0000
0000
,
0001
0100
0000
0000
0001
0100
0000
0000
0001
0010
0000
0000
0001
0010
0000
0000
,
0100
0010
0000
0000
0100
0010
0000
0000
0100
1000
0000
0000
0100
1000
0000
0000
,
0010
1000
0000
0000
0010
1000
0000
0000
0010
0100
0000
0000
0010
0100
0000
0000
,
0001
0100
0000
0000
0001
0100
0000
0000
0001
1000
0000
0000
0001
1000
0000
0000
,
0100
1000
0000
0000
0100
1000
0000
0000
0010
1000
0000
0000
0010
1000
0000
0000
,
0010
0100
0000
0000
0010
0100
0000
0000
0001
0100
0000
0000
0001
0100
0000
0000
,
0001
0100
0010
0000
0010
1000
0100
1000
,
0010
0000
0110
0000
1001
0000
0001
0010
,
0100
0010
0001
1000
0010
0100
0001
0100
,
0020
2030
3200
0320
,
0031
0010
0001
0100
0010
0100
0001
1000
,
0100
0000
1001
0000
0110
0000
0001
0010
,
0100
1000
0001
0100
0010
0100
0001
0100
,
0020
0000
0100
0130
,
0010
0100
0010
0100
0010
0000
1001
0000
,
0001
0010
0001
0010
0001
0000
1100
0000
,
0010
1000
0010
1000
0010
1000
0100
1000
,
0020
0230
0302
0013
,
0100
1000
0100
1000
0100
0000
1010
0000
,
0010
0100
0010
0100
0001
0000
0101
0000
,
0001
0010
0100
1000
0010
0100
0001
1000
,
0020
0000
1000
1030
,
1010
0000
1001
0000
0001
1000
0010
0100
,
0001
1000
0100
0020
0001
0001
0031
0000
,
1000
0010
1000
0100
1000
0010
0100
0001
,
0010
0100
1000
0020
0100
0100
0130
0000
,
1001
0000
0110
0000
0001
1000
0100
0010
,
0001
1000
0010
0100
0010
0000
0010
1000
,
0100
0010
0001
1000
0100
0100
0100
0100
,
1000
0010
1000
0001
0100
0010
1000
0001
,
0020
0001
0001
0031
,
0010
0001
0000
0000
0010
0001
0000
0000
0010
0100
0000
0000
0010
0100
0000
0000
,
1000
0100
0000
0000
1000
0100
0000
0000
0010
1000
0000
0000
0010
1000
0000
0000
,
0001
0100
0000
0000
0001
0100
0000
0000
0010
0100
0000
0000
0010
0100
0000
0000
,
0001
1000
0000
0000
0001
1000
0000
0000
0010
1000
0000
0000
0010
1000
0000
0000
,
1001
0110
1001
0110
,
0011
0000
0011
0000
1100
0000
1100
1100
,
1100
0110
1001
0110
,
1001
0001
0001
0001
2001
0000
3010
1000
,
0020
0000
1030
0000
1010
0000
0001
1000
,
0002
0000
2003
0000
3001
0000
0010
0001
,
0100
0001
1000
0010
1000
0001
0100
0001
,
2000
0000
3002
0000
0203
0000
0310
0100
,
0001
1000
0010
0100
0001
0100
0010
1000
,
0001
0000
0011
0000
1100
0000
0010
0100
,
0001
0001
0100
0100
0010
0010
1000
1000
,
0002
0000
0000
0100
,
1003
0010
1000
0010
1000
0000
1010
0000
,
0100
0010
0100
0010
0100
0000
0110
0000
,
0001
0010
0001
0010
0100
1000
0010
0100
,
0002
2003
3020
0130
,
0001
0100
0001
0100
0010
0000
0110
0000
,
0010
1000
0100
1000
0010
0000
1010
0000
,
1000
0010
0100
0001
1000
0001
1000
0100
,
0020
0000
0130
0110
,
1001
0000
0110
0000
1000
0001
0100
0010
,
1000
0001
0010
0200
1000
1000
1300
0000
,
0001
0100
0001
0010
0001
0100
0010
0100
,
0001
1000
0001
0200
0010
0010
0310
0000
,
1001
0000
0110
0000
1000
0001
0010
0100
,
1000
0001
0100
0010
0100
0000
0100
0001
,
0010
0100
1000
0001
0010
0010
0010
0010
,
0001
0100
0001
1000
0010
0100
0001
1000
,
0100
0100
0100
0100
0200
0000
1300
0000
,
0100
1000
0000
0000
0100
1000
0000
0000
0010
0100
0000
0000
0010
0100
0000
0000
,
0001
0100
0000
0000
0001
0100
0000
0000
0010
1000
0000
0000
0010
1000
0000
0000
,
0010
0100
0000
0000
0001
0100
0000
0000
0001
1000
0000
0000
0001
0100
0000
0000
,
0010
0100
0000
0000
0001
0100
0000
0000
0010
1000
0000
0000
0010
0100
0000
0000
,
1001
0110
1001
0110
,
1001
0000
0110
0000
0011
0000
1010
1010
,
1010
0110
1001
0110
,
2001
0001
0001
0001
3002
0000
1003
0000
;

//---------------dance-single - ----------------
#NOTES:
     dance-single:
     :
     Medium:
     6:
     0.513,0.573,0.375,0.164,0.000:
1000
0010
1000
0001
,
0100
0000
0010
0000
0100
0000
0001
0100
,
0001
0010
0100
1000
,
0010
0100
0001
0100
,
0110
1001
0110
1001
,
0110
0000
0001
0000
1000
0000
0100
1000
,
0010
0010
0100
0100
,
0110
1001
0110
0001
,
1000
0000
0100
0000
0010
0100
0010
0000
,
0100
0000
0001
0000
1000
0000
0100
1000
,
0100
0010
0100
0001
,
2000
0000
0010
0000
0100
0000
0001
3000
,
0001
0000
0010
0000
0100
0000
0100
0010
,
0100
1000
0010
0110
,
0001
1000
0100
0010
,
2002
0000
0000
3003
,
0010
0010
0010
0110
,
0100
0100
0101
0010
,
0100
0000
1000
0000
0001
0010
0001
0010
,
0100
1000
0010
0100
,
0001
0100
0010
0100
0001
0000
1000
0000
,
0100
1000
0010
1000
0010
0000
0100
0000
,
0001
0100
0010
0000
0010
1000
0100
1000
,
0010
0000
0000
0000
,
1001
0001
1000
1001
,
0010
1000
0010
1000
0100
0000
0100
1000
,
0010
0000
0010
0100
0001
0000
0001
0000
,
1000
0100
1000
0001
1000
0000
0010
0000
,
0100
0000
0100
0000
0001
0100
0010
0000
,
0010
0100
0001
0000
0001
0010
0100
0000
,
0100
1000
0010
0100
,
0002
2003
3020
0230
,
0302
0000
1000
1003
,
0001
0100
0001
1000
,
0010
0000
0100
0000
0010
0000
1000
0010
,
1000
0100
0010
0001
,
0100
0010
1000
0010
,
0110
1001
0110
1001
,
0110
0000
1000
0000
0001
0000
0010
0001
,
0100
0100
0010
0010
,
0110
1001
0110
1000
,
0001
0000
0010
0000
0100
0010
0100
0000
,
0010
0000
1000
0000
0001
0000
0010
0001
,
0010
0100
0010
1000
,
0002
0000
0100
0000
0010
0000
1000
0003
,
1000
0000
0100
0000
0010
0000
0010
0100
,
0010
0001
0100
0110
,
1000
0001
0010
0100
,
2002
0000
0000
3003
,
0100
0100
0100
0110
,
0010
0010
1010
0100
,
0010
0000
0001
0000
1000
0100
1000
0100
,
0010
0001
0100
0010
,
1000
0010
0100
0010
1000
0000
0001
0000
,
0010
0001
0100
0001
0100
0000
0010
0000
,
1000
0010
0100
0000
0100
0001
0010
0001
,
0200
0000
0310
0110
,
1001
1000
0001
1001
,
0100
0001
0100
0001
0010
0000
0010
0001
,
0100
0000
0100
0010
1000
0000
1000
0000
,
0001
0010
0001
1000
0001
0000
0100
0000
,
0010
0000
0010
0000
1000
0010
0100
0000
,
0100
0010
1000
0000
1000
0100
0010
0000
,
0010
0001
0100
0010
,
2000
3002
0203
0320
,
2030
0000
0001
3001
,
0010
1000
0010
0000
0100
0000
0001
0000
,
0011
0000
0100
1000
0010
0000
0001
0000
,
1000
0010
1000
0000
0100
0000
0010
0000
,
0110
1001
0110
0100
,
0110
1001
0110
1001
,
0110
0000
1001
0000
0110
0000
0100
0001
,
0100
0010
0100
0001
,
1001
0010
0200
0310
;

//---------------dance-single - ----------------
#NOTES:
     dance-single:
     :
     Easy:
     4:
     0.388,0.438,0.146,0.265,0.000: // measure 1
1000
1000
0001
0001
,  // measure 2
0010
0010
0100
0100
,  // measure 3
0010
0100
0010
0100
,  // measure 4
0001
1000
0001
1000
,  // measure 5
2000
0000
3002
0000
,  // measure 6
0203
0000
0320
0000
,  // measure 7
0230
0000
0302
0000
,  // measure 8
2003
0000
3020
0000
,  // measure 9
0130
0100
0010
0100
,  // measure 10
0010
0100
0000
0001
,  // measure 11
0001
1000
0010
1000
,  // measure 12
0100
0000
0100
1000
,  // measure 13
0010
0100
0001
1000
,  // measure 14
0100
0010
0000
0001
,  // measure 15
0010
0100
1000
0010
,  // measure 16
0100
0000
0000
0000
,  // measure 17
0010
0010
0110
0000
,  // measure 18
0001
0001
1001
0000
,  // measure 19
1000
0010
1000
0100
,  // measure 20
0020
0000
0000
0001
,  // measure 21
0031
0001
1000
0010
,  // measure 22
0100
0001
1000
0100
,  // measure 23
0010
0001
1000
0010
,  // measure 24
0110
0000
0000
0000
,  // measure 25
0001
0001
1000
1000
,  // measure 26
0010
0100
1001
0000
,  // measure 27
0001
0010
0100
1000
,  // measure 28
0010
0100
0110
0000
,  // measure 29
1000
1000
0010
0010
,  // measure 30
0100
0001
0011
0000
,  // measure 31
0100
1000
0010
0100
,  // measure 32
0002
1003
1001
0000
,  // measure 33
0020
0130
0110
0000
,  // measure 34
0001
0001
1000
1000
,  // measure 35
0010
0010
0100
0100
,  // measure 36
0010
0100
0010
0100
,  // measure 37
0001
1000
0001
1000
,  // measure 38
0002
1003
2000
3001
,  // measure 39
0020
0130
0200
0310
,  // measure 40
0020
0130
0002
1003
,  // measure 41
2000
3001
0001
1000
,  // measure 42
0010
0010
0100
0010
,  // measure 43
0100
0010
0000
1000
,  // measure 44
1000
0001
0100
0001
,  // measure 45
0010
0000
0010
0001
,  // measure 46
0100
0010
1000
0001
,  // measure 47
0010
0100
0000
1000
,  // measure 48
0100
0010
0001
0100
,  // measure 49
0010
0000
0000
0000
,  // measure 50
0100
0100
0110
0000
,  // measure 51
1000
1000
1001
0000
,  // measure 52
0001
0100
0001
0010
,  // measure 53
0200
0000
0000
1000
,  // measure 54
1300
1000
0001
0100
,  // measure 55
0010
1000
0001
0010
,  // measure 56
0100
1000
0001
0100
,  // measure 57
0110
0000
0000
0000
,  // measure 58
1000
1000
0001
0001
,  // measure 59
0100
0010
1001
0000
,  // measure 60
1000
0100
0010
0001
,  // measure 61
0100
0010
0110
0000
,  // measure 62
0001
0001
0100
0100
,  // measure 63
0010
1000
1100
0000
,  // measure 64
0010
0001
0100
0010
,  // measure 65
2000
3001
1001
0000
,  // measure 66
0200
0310
0110
0000
,  // measure 67
1000
1000
0001
0001
,  // measure 68
0100
0100
0010
0010
,  // measure 69
0100
0010
0100
0010
,  // measure 70
1000
0001
1000
0001
,  // measure 71
2000
3001
0002
1003
,  // measure 72
0200
0310
0020
0130
,  // measure 73
0200
0310
2000
3001
,  // measure 74
0002
1003
0200
0310
;

//---------------dance-single - ----------------
#NOTES:
     dance-single:
     :
     Beginner:
     2:
     0.261,0.302,0.055,0.247,0.000: // measure 1
1000
0000
0001
0000
,  // measure 2
1000
0000
0010
0100
,  // measure 3
0010
0000
0100
0000
,  // measure 4
0010
0000
0100
0000
,  // measure 5
0002
0000
2003
0000
,  // measure 6
3020
0000
0230
0000
,  // measure 7
0320
0000
2030
0000
,  // measure 8
3002
0000
2003
3000
,  // measure 9
0001
0000
0001
0001
,  // measure 10
0001
0000
0000
1000
,  // measure 11
1000
0010
1000
0010
,  // measure 12
1000
0000
0000
0000
,  // measure 13
0100
0000
0100
0000
,  // measure 14
0100
0000
0000
0100
,  // measure 15
0010
0100
0001
1000
,  // measure 16
0001
0000
0000
0000
,  // measure 17
1000
1000
2000
3000
,  // measure 18
0001
0001
0002
0003
,  // measure 19
0100
0000
0010
0000
,  // measure 20
0110
0000
0000
0000
,  // measure 21
0001
0001
0002
0003
,  // measure 22
1000
1000
2000
3000
,  // measure 23
0010
0000
0100
0000
,  // measure 24
0110
0000
0000
0000
,  // measure 25
0010
0000
0010
0000
,  // measure 26
0010
0010
0010
0000
,  // measure 27
0100
0000
0100
0000
,  // measure 28
0100
0100
0100
0000
,  // measure 29
0010
0000
0010
0000
,  // measure 30
0100
0000
0100
0000
,  // measure 31
0100
0100
0100
0000
,  // measure 32
0010
0010
0010
0000
,  // measure 33
0002
0000
0000
0000
,  // measure 34
1003
0000
1000
0000
,  // measure 35
0001
0000
0100
0010
,  // measure 36
0100
0000
0010
0000
,  // measure 37
0100
0000
0010
0000
,  // measure 38
2000
0000
3002
0000
,  // measure 39
0203
0000
0320
0000
,  // measure 40
0230
0000
0302
0000
,  // measure 41
2003
0000
3002
0003
,  // measure 42
1000
0000
1000
1000
,  // measure 43
1000
0000
0000
0001
,  // measure 44
0001
0100
0001
0100
,  // measure 45
0001
0000
0000
0000
,  // measure 46
0010
0000
0010
0000
,  // measure 47
0010
0000
0000
0010
,  // measure 48
0100
0010
1000
0001
,  // measure 49
1000
0000
0000
0000
,  // measure 50
0001
0001
0002
0003
,  // measure 51
1000
1000
2000
3000
,  // measure 52
0010
0000
0100
0000
,  // measure 53
0110
0000
0000
0000
,  // measure 54
1000
1000
2000
3000
,  // measure 55
0001
0001
0002
0003
,  // measure 56
0100
0000
0010
0000
,  // measure 57
0110
0000
0000
0000
,  // measure 58
0100
0000
0100
0000
,  // measure 59
0100
0100
0100
0000
,  // measure 60
0010
0000
0010
0000
,  // measure 61
0010
0010
0010
0000
,  // measure 62
0100
0000
0100
0000
,  // measure 63
0010
0000
0010
0000
,  // measure 64
0010
0010
0010
0000
,  // measure 65
0100
0100
0100
0000
,  // measure 66
2000
0000
0000
0000
,  // measure 67
3001
0000
0001
0000
,  // measure 68
1000
0000
1000
1000
,  // measure 69
0010
0000
0100
0000
,  // measure 70
0010
0000
0100
0000
,  // measure 71
0001
0000
1000
0000
,  // measure 72
0010
0000
1001
0000
,  // measure 73
0100
0000
1001
0000
,  // measure 74
0020
0000
0130
0000
;
