#TITLE:Music Fever;
#SUBTITLE:;
#ARTIST:DJ Luke Penn feat. Mr. M;
#TITLETRANSLIT:;
#SUBTITLETRANSLIT:;
#ARTISTTRANSLIT:;
#CREDIT:;
#BANNER:Music Fever-bn.png;
#BACKGROUND:Music Fever-bg.png;
#LYRICSPATH:;
#CDTITLE:cd.png;
#MUSIC:Music Fever.mp3;
#OFFSET:-7.968;
#SAMPLESTART:66.370;
#SAMPLELENGTH:12.000;
#SELECTABLE:YES;
#BPMS:0.000=154.000;
#STOPS:48.000=1.948
,242.000=1.558
;
#BGCHANGES:;

//---------------dance-single - ----------------
#NOTES:
     dance-single:
     :
     Hard:
     8:
     0.599,0.559,0.257,0.414,0.120: // measure 1
2000
0010
0001
3010
,  // measure 2
0002
0100
0010
1003
,  // measure 3
0100
0000
0010
0000
0100
0010
0100
0000
,  // measure 4
0001
0100
0001
0000
0010
1000
0010
0000
,  // measure 5
0002
0000
1003
0000
0010
1000
0010
1000
,  // measure 6
0020
0000
0130
0000
0100
0010
0100
0010
,  // measure 7
0200
0000
0301
0000
0001
0100
0001
0100
,  // measure 8
0002
2003
3020
0230
,  // measure 9
0301
0000
0000
1000
0000
0000
0001
0000
0000
1000
0000
0000
0001
0000
1000
0000
,  // measure 10
0010
0000
0000
1000
0000
0000
0010
0000
0000
1000
0000
0000
0010
0000
0100
0000
,  // measure 11
0010
0000
0000
0100
0000
0000
0010
0000
0000
0100
0000
0000
0010
0000
0100
0000
,  // measure 12
0001
0000
0000
0100
0000
0000
0001
0000
0000
0100
0000
0000
0001
0000
1000
0000
,  // measure 13
1001
0000
0001
1000
0001
1000
0100
1000
,  // measure 14
0010
0000
0100
0000
0001
0000
1000
0000
0001
0000
1000
0000
0001
0000
0000
1001
,  // measure 15
0000
0100
0010
1000
0010
0100
0001
1000
,  // measure 16
0001
0100
0002
0000
2003
0000
3200
0000
,  // measure 17
0320
0000
0031
0010
0001
0100
0010
1000
,  // measure 18
0010
0000
1000
0000
0010
0000
0100
0000
0001
0000
0100
0000
0001
0000
0000
1010
,  // measure 19
0000
0010
0100
0001
1000
0010
0100
0010
,  // measure 20
1000
0000
0001
0000
0100
0001
0100
0001
0100
0010
0100
0010
0200
0000
0000
0000
,  // measure 21
0301
0002
2003
3020
,  // measure 22
0130
0000
1001
0000
0001
1000
0100
0000
,  // measure 23
0100
1000
0010
0000
0010
0100
0001
0000
,  // measure 24
0001
0100
0010
0100
0001
0100
0001
1000
,  // measure 25
0100
1000
0020
0000
0230
0000
0302
0000
,  // measure 26
1003
0100
1000
0000
1010
0000
0100
0001
,  // measure 27
0010
0100
0010
0000
0001
0010
0100
0000
,  // measure 28
1000
0100
0010
0001
0100
0001
1000
0010
,  // measure 29
0100
0000
0002
0000
0013
0000
0001
1000
,  // measure 30
0001
1001
0110
1010
,  // measure 31
0101
0000
0002
0000
0013
0000
0001
0100
,  // measure 32
0010
0000
0010
0100
0010
0000
2000
0000
,  // measure 33
3001
0000
0110
0000
0101
0000
1000
0010
,  // measure 34
1000
0000
0100
0001
0100
0001
2000
0000
,  // measure 35
0010
0000
3001
0000
0100
0010
0100
0000
,  // measure 36
0100
0010
0000
0110
0000
1001
0000
0110
,  // measure 37
0000
0001
2001
0000
3001
0100
0120
0000
,  // measure 38
1030
0001
0100
0010
1000
0100
1000
0001
,  // measure 39
0010
0002
2003
3020
,  // measure 40
0230
0000
0301
1000
0001
1000
0010
0100
,  // measure 41
0010
0000
0210
0000
0301
1000
1002
0000
,  // measure 42
0103
0010
0110
0000
1001
0000
0110
0000
,  // measure 43
1001
0000
0100
0010
0100
0000
0001
1000
,  // measure 44
0001
0000
1000
0001
0100
0010
1000
0001
,  // measure 45
0200
0000
0301
1000
0010
0100
0001
1000
,  // measure 46
0100
0000
0010
0000
0001
0000
0100
0000
0010
0000
0100
0000
0010
0000
0000
0101
,  // measure 47
0000
0100
0001
1000
0001
0010
0100
1000
,  // measure 48
0001
0100
0020
0000
2030
0000
3002
0000
,  // measure 49
0203
0000
0301
1000
0001
1000
0010
0100
,  // measure 50
0001
0000
0010
0000
0100
0000
1000
0000
0001
0000
0010
0000
0001
0000
0000
0110
,  // measure 51
0000
0100
0010
1000
0001
0100
0010
1000
,  // measure 52
0001
0000
0100
0000
0010
0100
0010
0100
0010
0100
0010
0100
0020
0000
0000
0000
,  // measure 53
0130
0000
0100
0001
1000
0010
0100
0001
,  // measure 54
0010
0000
0100
0000
1000
0000
0010
0000
1000
0000
0010
0000
1000
0000
0000
0110
,  // measure 55
0000
0010
0100
0001
1000
0100
0010
0001
,  // measure 56
0100
0010
2000
0000
3002
0000
0203
0000
,  // measure 57
0320
0000
0130
0001
0100
0001
1000
0010
,  // measure 58
0100
0000
0001
0000
0100
0000
0010
0000
1000
0000
0001
0000
0100
0000
0000
1010
,  // measure 59
0000
0010
1000
0001
0100
0010
1000
0001
,  // measure 60
0100
0000
0010
0000
1000
0010
1000
0010
1000
0010
1000
0010
2000
0000
0000
0000
,  // measure 61
3001
2002
3003
1001
;

//---------------dance-single - ----------------
#NOTES:
     dance-single:
     :
     Medium:
     6:
     0.468,0.447,0.129,0.331,0.000: // measure 1
1000
0000
0000
0001
1000
0000
0000
0010
,  // measure 2
1000
0001
0100
1000
,  // measure 3
0001
1000
0001
0000
0010
0100
0010
0000
,  // measure 4
0020
0130
0200
0310
,  // measure 5
0001
1000
0001
1000
,  // measure 6
0100
1000
0010
0100
,  // measure 7
0001
1000
0001
0100
,  // measure 8
0010
1000
0100
0110
,  // measure 9
0001
0000
1000
0001
1000
0001
0000
0000
,  // measure 10
1000
0000
0100
0000
1000
0100
1000
0000
,  // measure 11
0010
0000
0100
0000
0010
0100
0010
0000
,  // measure 12
0001
1000
0010
0100
,  // measure 13
1001
0000
0100
1000
0100
0000
0001
0000
,  // measure 14
0100
0000
0010
0000
0010
0100
0010
0000
,  // measure 15
0001
0000
1000
0001
1000
0000
0100
0000
,  // measure 16
0100
0010
0002
0000
2003
0000
3200
0000
,  // measure 17
0310
0000
0001
0010
0001
0000
0100
0000
,  // measure 18
0010
0000
1000
0000
0100
1000
0010
0000
,  // measure 19
0010
0100
0001
1000
0100
0000
1000
0010
,  // measure 20
0100
0001
1000
0010
1000
0010
2000
0000
,  // measure 21
3100
1000
0001
1000
,  // measure 22
0010
1000
0020
0000
0130
0000
0001
0100
,  // measure 23
0001
0000
0001
1000
0100
0000
0100
1000
,  // measure 24
0010
0000
0020
0000
0230
0000
0301
0010
,  // measure 25
0001
0010
0002
0000
2003
0000
3200
0000
,  // measure 26
2300
0000
3010
0000
0010
1000
0010
0000
,  // measure 27
0100
0000
0001
0100
0001
0000
0100
0000
,  // measure 28
1000
0000
0100
0010
0100
0010
0100
0010
,  // measure 29
0100
0000
0002
0000
0000
2003
0000
0001
,  // measure 30
0000
0001
3000
0001
1000
0000
0010
0000
,  // measure 31
1000
0000
0020
0000
0000
0100
0000
0230
,  // measure 32
0000
0010
0000
0301
0000
1000
0000
0001
,  // measure 33
0000
0000
2000
0000
0000
0001
3000
0001
,  // measure 34
0000
1000
0000
0010
0001
0000
1000
0000
,  // measure 35
0001
1000
0001
0000
0110
0000
1001
0000
,  // measure 36
0001
0100
0000
0101
0000
1010
0000
0202
,  // measure 37
0000
0303
0101
0000
0010
1000
0010
0000
,  // measure 38
0010
0100
0020
0000
0230
0000
0320
0000
,  // measure 39
0130
0000
0001
1000
0001
0000
0001
1000
,  // measure 40
0001
0000
0001
0010
0100
0010
0100
0010
,  // measure 41
0100
0000
0100
0000
0010
0100
0010
0000
,  // measure 42
0001
1000
0002
0000
2003
0000
3001
0000
,  // measure 43
1001
0000
0100
0010
1000
0000
1000
0010
,  // measure 44
0100
0002
0013
0011
,  // measure 45
0011
0000
0010
0001
0010
0000
1000
0000
,  // measure 46
0010
0000
0100
0000
0100
0010
0100
0000
,  // measure 47
1000
0000
0001
1000
0001
0000
0010
0000
,  // measure 48
0010
0100
2000
0000
3002
0000
0023
0000
,  // measure 49
0130
0000
1000
0100
1000
0000
0010
0000
,  // measure 50
0100
0000
0001
0000
0010
0001
0100
0000
,  // measure 51
0100
0010
1000
0001
0010
0000
0001
0100
,  // measure 52
0010
1000
0001
0100
0001
0100
0002
0000
,  // measure 53
0013
0000
0001
1000
0001
0000
0001
0100
,  // measure 54
0010
0000
0010
0100
0010
0000
0010
0000
,  // measure 55
0100
0000
0100
1000
0100
0000
0001
0010
,  // measure 56
0100
0002
0203
0320
,  // measure 57
2030
0000
3001
0010
0001
0000
0100
1000
,  // measure 58
0100
0000
0100
0010
0001
0000
0011
0000
,  // measure 59
1100
0000
0010
0100
0010
0000
0001
0000
,  // measure 60
0100
0010
0100
0010
0100
0010
0002
0000
,  // measure 61
2003
3010
0000
1001
;
