#TITLE:Move It To The Rhythm;
#SUBTITLE:;
#ARTIST:Cy-Ro;
#TITLETRANSLIT:;
#SUBTITLETRANSLIT:;
#ARTISTTRANSLIT:;
#CREDIT:;
#BANNER:Move it To The Rhythm-bn.png;
#BACKGROUND:Move it To The Rhythm-bg.png;
#LYRICSPATH:;
#CDTITLE:Euromach 4.png;
#MUSIC:Move It To The Rhythm.mp3;
#OFFSET:-6.240;
#SAMPLESTART:49.250;
#SAMPLELENGTH:12.000;
#SELECTABLE:YES;
#BPMS:0.000=156.080;
#STOPS:;
#BGCHANGES:;

//---------------dance-single - ----------------
#NOTES:
     dance-single:
     :
     Hard:
     8:
     0.668,0.575,0.303,0.365,0.080:
0010
1000
0001
1000
,
0100
1000
0010
1000
,
0001
1000
0010
0100
,
2002
0000
0000
3003
,
1000
0000
0010
0000
1000
0000
0100
2000
0000
3000
0010
0000
0100
0000
0001
0000
,
0010
0000
0100
0000
0010
0000
0001
0020
0000
0030
0100
0000
1000
0000
0010
0000
,
0100
0010
0210
0000
0301
0010
0012
0000
,
0013
0001
0010
0100
1000
0010
0100
0001
,
0010
0000
0100
0000
1000
0000
0010
2000
0000
3000
0010
0000
1000
0000
0100
0000
,
0010
0000
0001
0000
0100
0000
0010
0200
0000
0300
0010
0000
0100
0000
0010
0000
,
1000
0100
1000
0100
0010
0001
0100
0010
,
0100
0000
0000
0001
0000
0000
1001
0000
0000
0100
0000
0000
1000
0000
0010
0000
,
0100
0001
0010
0100
0000
0010
0100
0010
,
0001
1000
0001
0100
0000
0010
1000
0010
,
2000
0000
3100
0010
0002
0000
0103
0010
,
0100
0001
1000
0100
0010
0100
1000
0000
,
0001
0100
0010
0100
0001
0010
0100
1000
,
0010
0100
0001
1000
0100
0010
0100
1000
,
0020
0000
1030
0100
0020
0000
0031
0000
,
0010
0001
0100
0001
1000
0010
0100
0001
,
2000
0000
0010
0000
3001
0000
0001
1000
,
0001
1002
0100
1003
,
1000
0010
0100
0000
0210
0000
0001
0000
,
0310
1000
0010
1000
0001
0100
0001
0100
,
0020
0000
1000
0000
0130
0000
0100
0010
,
0100
1002
0100
1003
,
0010
0100
0010
0100
0001
0010
0100
0000
,
0100
0010
0100
1000
0010
0100
0001
0000
,
1000
0010
1000
0010
0100
0010
0200
0000
,
0301
0010
0100
1000
0010
0100
0002
0000
,
0013
0100
0010
0001
1000
0010
0100
0001
,
0100
0110
1001
1100
,
0100
1000
0100
1000
0010
1000
0001
0010
,
0100
1000
0001
0010
0100
1000
0100
0000
,
0210
0310
0021
0031
,
0001
0100
0010
0100
0001
0010
0100
0000
,
1000
0010
0100
0010
0100
0110
0000
0010
,
0100
0001
0010
0100
1000
1010
0000
0010
,
0100
0010
0210
0000
0301
0010
0021
0000
,
0130
1000
0100
1000
0010
0100
0001
0000
,
0001
0010
0100
1000
0010
0110
0000
0001
,
0010
0100
1000
0010
0100
0001
0010
0000
,
0100
0010
0200
0000
1300
0001
1000
0200
,
0000
1300
0000
0011
0000
1010
0000
0100
,
0001
0000
0100
0000
0001
0000
0010
0002
0000
0003
0100
0000
0010
0000
1000
0000
,
0100
0000
0010
0000
0100
0000
1000
0200
0000
0300
0010
0000
0001
0000
0100
0000
,
0010
0100
0120
0000
1030
0100
2100
0000
,
3100
1000
0100
0010
0001
0100
0010
1000
,
0100
0000
0010
0000
0001
0000
0100
0002
0000
0003
0100
0000
0001
0000
0010
0000
,
0100
0000
1000
0000
0010
0000
0100
0020
0000
0030
0100
0000
0010
0000
0100
0000
,
0001
0010
0001
0010
0100
1000
0010
0100
,
0010
0000
0000
1000
0000
0000
1001
0000
0000
0010
0000
0000
0001
0000
0100
0000
,
0010
0100
0001
0100
0001
0101
0000
0100
,
0001
1000
0001
0010
0001
0101
0000
0100
,
0001
0100
0102
0000
1003
0100
2100
0000
,
3001
0010
0001
0010
0100
0010
0001
0000
,
0100
0010
1000
0001
0100
0101
0000
1000
,
0001
0100
0010
0100
0001
1000
0100
0000
,
0001
0100
0002
0000
1003
0100
1000
0002
,
0000
1003
0000
1100
0000
0110
0000
0001
,
0001
0000
1000
0000
0100
0000
1000
0200
0000
0300
1000
0000
0010
0000
1000
0000
,
0001
0000
1000
0000
0001
0000
0010
0002
0000
0003
1000
0000
0100
0000
0010
0000
,
0001
1000
2001
0000
3010
1000
1020
0000
,
1030
0001
1000
0010
0100
0010
1000
0001
,
0100
0000
0010
0000
0100
0000
0001
0020
0000
0000
0031
0000
0010
0000
0100
0000
,
1000
0000
0010
0000
1000
0000
0010
2000
0000
0000
3100
0000
0010
0000
0100
0000
,
1000
0001
0010
0001
1000
0100
0010
0001
,
1000
0000
0000
1010
0000
0000
0101
0000
0000
1010
0000
0000
0010
0000
1000
0000
;

//---------------dance-single - ----------------
#NOTES:
     dance-single:
     :
     Medium:
     6:
     0.503,0.453,0.437,0.365,0.000: // measure 1
1000
0000
0001
0000
1001
0000
0001
1000
,  // measure 2
0010
0000
0100
0000
0110
0000
0010
0100
,  // measure 3
0001
0000
1000
0000
1001
0000
0100
1000
,  // measure 4
2002
0000
0000
3003
,  // measure 5
0001
1000
0010
0000
2002
0000
3003
0000
,  // measure 6
0001
0010
0100
0000
2200
0000
3300
0000
,  // measure 7
0001
0001
0002
0000
1003
1000
2000
0000
,  // measure 8
3001
1000
0010
0110
,  // measure 9
0010
0100
0010
0000
0220
0000
0330
0000
,  // measure 10
1000
0001
1000
0000
2002
0000
3003
0000
,  // measure 11
1000
1000
1001
0000
0001
0001
1001
0000
,  // measure 12
0001
0000
0000
1000
0000
0000
0001
0000
,  // measure 13
1000
0010
1000
1001
,  // measure 14
0010
0100
0001
0101
,  // measure 15
0001
1000
0010
0000
0100
0001
0010
0000
,  // measure 16
0100
1000
0010
0000
0100
0001
1000
0000
,  // measure 17
0001
0100
0001
1001
,  // measure 18
0100
0010
1000
1010
,  // measure 19
1000
0001
0100
0000
0010
1000
0100
0000
,  // measure 20
0010
0001
0100
0000
0010
1000
0001
0000
,  // measure 21
1001
0000
2000
0000
3001
0000
0010
0010
,  // measure 22
0010
0000
0002
0000
1003
0000
0100
0100
,  // measure 23
0100
1001
0110
1001
,  // measure 24
1000
1000
0001
0000
0001
0001
1000
0000
,  // measure 25
1001
0000
0002
0000
1003
0000
0100
0100
,  // measure 26
0100
0000
2000
0000
3001
0000
0010
0010
,  // measure 27
0010
0110
2002
3003
,  // measure 28
0002
1003
2002
3003
,  // measure 29
1000
0010
0100
0000
1001
0000
0000
0000
,  // measure 30
0001
0010
0100
0000
1001
0000
0000
0000
,  // measure 31
0001
0001
0001
0000
1000
1000
1000
0000
,  // measure 32
0010
0100
0010
0100
,  // measure 33
0010
0100
0010
0000
1001
0000
0000
0000
,  // measure 34
0001
1000
0001
0000
0110
0000
0000
0000
,  // measure 35
0001
0000
1000
0001
1000
0000
0010
1000
,  // measure 36
0010
0100
0010
1000
,  // measure 37
0001
0100
0010
0000
1001
0000
0000
0000
,  // measure 38
1000
0100
0010
0000
1001
0000
0000
0000
,  // measure 39
1000
1000
1000
0000
0001
0001
0001
0000
,  // measure 40
0100
0010
0100
0010
,  // measure 41
0100
0010
0100
0000
1001
0000
0000
0000
,  // measure 42
1000
0001
1000
0000
0110
0000
0000
0000
,  // measure 43
1000
0000
0001
1000
0001
0000
0100
0001
,  // measure 44
0100
0010
0100
0001
,  // measure 45
1000
0001
0100
0000
2002
0000
3003
0000
,  // measure 46
1000
0100
0010
0000
0022
0000
0033
0000
,  // measure 47
1000
1000
2000
0000
3001
0001
0002
0000
,  // measure 48
1003
0001
0100
0110
,  // measure 49
0100
0010
0100
0000
0220
0000
0330
0000
,  // measure 50
0001
1000
0001
0000
2002
0000
3003
0000
,  // measure 51
0001
0001
1001
0000
1000
1000
1001
0000
,  // measure 52
1000
0000
0000
0001
0000
0000
1000
0000
,  // measure 53
0100
1000
0001
0000
0110
0000
0000
0000
,  // measure 54
0010
1000
0001
0000
0110
0000
0000
0000
,  // measure 55
0010
0010
0010
0000
0100
0100
0100
0000
,  // measure 56
1000
0001
1000
0001
,  // measure 57
1000
0001
1000
0000
0110
0000
0000
0000
,  // measure 58
0010
0100
0010
0000
1001
0000
0000
0000
,  // measure 59
0010
0000
0100
0010
0100
0000
0001
0100
,  // measure 60
0001
1000
0001
0100
,  // measure 61
0010
0100
0001
0000
0220
0000
0330
0000
,  // measure 62
0010
1000
0001
0000
0202
0000
0303
0000
,  // measure 63
0010
0010
0020
0000
0130
0100
0200
0000
,  // measure 64
0310
0100
0001
1001
,  // measure 65
1000
0001
1000
0000
2002
0000
3003
0000
,  // measure 66
0100
0010
0100
0000
0220
0000
0330
0000
,  // measure 67
0100
0100
0110
0000
0010
0010
0110
0000
,  // measure 68
0010
0000
0000
0100
0000
0000
0010
0000
;

//---------------dance-single - ----------------
#NOTES:
     dance-single:
     :
     Easy:
     3:
     0.288,0.273,0.160,0.178,0.000: // measure 1
1000
1000
1000
0000
,  // measure 2
0001
0001
0001
0000
,  // measure 3
1000
0010
0100
0000
,  // measure 4
2002
0000
3003
0000
,  // measure 5
0001
1000
0001
0000
,  // measure 6
1000
1000
1000
0000
,  // measure 7
0001
1000
0001
0000
,  // measure 8
1000
1000
1000
0000
,  // measure 9
0010
0100
0010
0000
,  // measure 10
0100
0100
0100
0000
,  // measure 11
0010
0100
0010
0000
,  // measure 12
0100
0000
0010
0000
,  // measure 13
1000
0000
0001
0000
,  // measure 14
1000
0001
1000
0000
,  // measure 15
1001
0000
0110
0000
,  // measure 16
0100
0100
0100
0000
,  // measure 17
0010
0000
0100
0000
,  // measure 18
0001
1000
0001
0000
,  // measure 19
1010
0000
0101
0000
,  // measure 20
0001
0001
0001
0000
,  // measure 21
2000
0000
0001
0001
,  // measure 22
3001
0000
0002
0000
,  // measure 23
1003
0000
2000
0000
,  // measure 24
0010
0010
3010
0000
,  // measure 25
1002
0000
1000
1000
,  // measure 26
1003
0000
2000
0000
,  // measure 27
3001
0000
0002
0000
,  // measure 28
0100
0100
0103
0000
,  // measure 29
1000
0001
1001
0000
,  // measure 30
0100
0010
0110
0000
,  // measure 31
2000
0000
3002
0000
,  // measure 32
1003
0001
1000
0000
,  // measure 33
0001
1000
1001
0000
,  // measure 34
0010
0100
0110
0000
,  // measure 35
0002
0000
2003
0000
,  // measure 36
3001
1000
0001
0000
,  // measure 37
0100
0100
0110
0000
,  // measure 38
0010
0010
0110
0000
,  // measure 39
0002
0000
2003
0000
,  // measure 40
3001
1000
0010
0000
,  // measure 41
1000
1000
1001
0000
,  // measure 42
0001
0001
1001
0000
,  // measure 43
0200
0000
0320
0000
,  // measure 44
0130
0001
1000
0000
,  // measure 45
0010
0100
0010
0000
,  // measure 46
0100
0100
0100
0000
,  // measure 47
0010
0100
0010
0000
,  // measure 48
0100
0100
0100
0000
,  // measure 49
1000
0001
1000
0000
,  // measure 50
0001
0001
0001
0000
,  // measure 51
1000
0001
1000
0000
,  // measure 52
0001
0000
1000
0000
,  // measure 53
0100
0001
1100
0000
,  // measure 54
1000
0010
0101
0000
,  // measure 55
0100
0100
0010
0010
,  // measure 56
0200
0000
0320
0000
,  // measure 57
1030
0001
0011
0000
,  // measure 58
0100
1000
1001
0000
,  // measure 59
2000
0000
3002
0000
,  // measure 60
1003
0001
1000
0010
,  // measure 61
0100
0010
0100
0000
,  // measure 62
0010
0010
0010
0000
,  // measure 63
0100
0010
0100
0000
,  // measure 64
0010
0010
0010
0000
,  // measure 65
0001
1000
0001
0000
,  // measure 66
1000
1000
1000
0000
,  // measure 67
0001
1000
0001
0000
,  // measure 68
1000
0000
0001
0000
,  // measure 69
0010
0000
0000
0000
;
