#TITLE:Motto-Motto Inamoto;
#SUBTITLE:(Caballero Remix);
#ARTIST:Franz Tornado & Bazooka Girl;
#TITLETRANSLIT:;
#SUBTITLETRANSLIT:;
#ARTISTTRANSLIT:;
#CREDIT:;
#BANNER:Motto-Motto Inamoto-bn.png;
#BACKGROUND:Motto-Motto Inamoto-bg.png;
#LYRICSPATH:;
#CDTITLE:cd.png;
#MUSIC:Motto-Motto Inamoto (Caballero Remix).ogg;
#OFFSET:-6.136;
#SAMPLESTART:48.870;
#SAMPLELENGTH:12.000;
#SELECTABLE:YES;
#BPMS:0.000=157.100;
#STOPS:;
#BGCHANGES:;

//---------------dance-single - ----------------
#NOTES:
     dance-single:
     :
     Hard:
     9:
     0.672,0.632,0.262,0.181,0.121:
1001
0000
0000
0000
0010
0000
1000
0000
0010
0100
0010
0000
0101
0000
0000
0000
,
0001
0010
0001
0000
1000
0001
1000
0000
0010
1000
0010
0000
1010
0000
0000
0000
,
0010
0000
1000
0000
0001
0000
0000
0000
1000
0001
1000
0000
1010
0000
0000
0000
,
1000
0000
0000
0010
0000
0000
0100
0000
0000
0000
0001
0100
0001
0000
0000
0000
,
1000
0001
0010
0001
0100
0010
1000
0100
,
1000
0010
0100
0001
0010
0100
1000
0001
,
1000
0000
0000
1000
0000
0000
0110
0000
0000
0001
0000
0000
0001
0000
1000
0000
,
0010
0000
0000
0010
0000
0000
1000
0000
0100
0000
1000
0000
0100
0000
1000
0000
,
0010
1000
0010
1000
0001
0100
0001
0100
,
0010
1000
0001
0010
0100
1000
0001
1000
,
0010
0010
0010
0010
0010
0000
0100
0100
,
0100
0000
0000
0100
0000
0000
0010
0000
0000
0000
0100
0000
0001
0000
1000
0000
,
2000
0000
3001
0100
0020
0000
1030
0010
,
0100
0000
0001
0000
0010
0000
0100
0000
1000
0000
0000
1100
0000
0000
1000
0000
,
0010
0100
0001
0100
0010
1000
0010
0100
,
0001
0010
0100
1000
0010
0100
0001
0010
,
0200
0000
1300
0010
0200
0000
0301
0100
,
0010
0000
1000
0000
0010
0000
0100
0000
0001
0000
0000
0010
0000
0000
1001
0000
,
0000
1000
0001
1000
0010
0100
0001
1000
,
0010
0010
1000
0100
0010
0001
0000
0010
,
1001
0010
1000
0001
0100
0000
0100
0001
,
0100
0010
1000
0001
0100
0000
1001
0000
,
0100
0010
1000
0010
1000
0001
0100
0010
,
2000
0001
3001
0000
1000
1000
0020
0000
,
1030
0010
0100
0001
1000
0001
1000
0010
,
0100
0001
0010
0001
0100
0010
1000
0000
,
1020
1000
1030
0000
0201
0001
0301
0000
,
1000
0010
0001
0100
2002
0000
3003
0000
,
0101
0001
0100
0010
1001
1000
0001
1000
,
0010
1000
0001
0100
0002
0000
1003
0000
,
0001
0010
0001
1000
0100
0010
0002
0000
,
1003
0010
0100
0001
0020
0000
0130
0000
,
1100
1000
0010
1000
1001
0100
0010
1000
,
0010
0010
0100
0010
0200
0000
0301
0000
,
0001
0010
0001
1000
0010
0100
0001
1000
,
0010
0010
1000
1000
0001
0001
0100
0100
,
0101
0100
0010
0100
1001
0001
1000
0001
,
0100
0001
1000
0010
2000
0000
3001
0000
,
1000
0100
1000
0001
0010
0100
2000
0000
,
3001
0100
0010
1000
0200
0000
0310
0000
,
0011
0001
0100
0001
1001
0010
0100
0001
,
0100
0100
0010
0100
0020
0000
1030
0000
,
1000
0100
1000
0001
0100
0010
1000
0001
,
1000
0000
0000
1010
0000
0000
1001
0000
0000
0000
0010
1000
0010
0000
0000
0000
,
0100
0000
0100
0000
0010
0000
0100
0000
0001
1000
0001
0000
0010
0000
0000
0000
,
0001
0001
0010
0010
0100
0100
1010
0000
,
1000
0000
0010
0000
0100
0000
0000
0000
0100
0010
0100
0000
0001
0000
0000
0000
,
0100
0001
1000
0010
0100
0010
1000
0001
,
0100
0000
0001
0000
0100
0000
0001
0000
1000
0010
1000
0000
0100
0000
0000
0000
,
1000
1000
0001
0001
0100
0100
1001
0000
,
1000
0010
1000
0000
0001
0010
0001
0000
,
0100
0000
0000
0010
0000
0000
1010
0000
0000
0000
1000
0010
1000
0000
0000
0000
,
0001
1000
0100
1000
0010
0100
0001
0010
,
0001
0100
0010
1000
0100
0010
0001
1000
,
0001
0000
0000
0001
0000
0000
0110
0000
0000
1000
0000
0000
1000
0000
0001
0000
,
0100
0000
0000
0100
0000
0000
0001
0000
0010
0000
0001
0000
0010
0000
0001
0000
,
0100
0001
0100
0001
1000
0010
1000
0010
,
0100
0001
1000
0100
0010
0001
1000
0001
,
0100
0100
0100
0100
0100
0000
0010
0010
,
0010
0000
0000
0010
0000
0000
0100
0000
0000
0000
0010
0000
1000
0000
0000
0000
;

//---------------dance-single - ----------------
#NOTES:
     dance-single:
     :
     Medium:
     5:
     0.443,0.421,0.020,0.201,0.000: // measure 1
0010
0000
0100
0000
0010
0100
0010
0000
,  // measure 2
1000
0000
0001
0000
1000
0001
1000
0000
,  // measure 3
0010
0000
0100
0010
,  // measure 4
2002
0000
3003
0000
0000
0001
1000
0000
,  // measure 5
0010
0010
0010
0000
1000
0000
0001
0000
,  // measure 6
0010
0010
0010
0000
0001
0000
1000
0000
,  // measure 7
0001
1000
0010
1000
,  // measure 8
0001
0010
0001
1000
,  // measure 9
0001
0001
0001
0000
1000
0000
0100
0000
,  // measure 10
0010
0010
0010
0000
0001
0000
1000
0000
,  // measure 11
0010
1000
0010
1000
0010
0000
1000
0001
,  // measure 12
0100
0001
1000
0010
,  // measure 13
1000
0000
0010
1000
0010
0000
0100
0001
,  // measure 14
1000
0001
1000
0010
,  // measure 15
1000
0010
1000
0000
0010
0000
0100
0000
,  // measure 16
0001
0010
0001
0010
0001
0000
0001
0010
,  // measure 17
0001
0000
1000
0001
1000
0000
0001
1000
,  // measure 18
0010
0100
0010
1000
,  // measure 19
0001
0010
0001
0000
0010
0001
1000
0000
,  // measure 20
0001
1000
0010
1000
0010
0000
1000
0000
,  // measure 21
0020
1000
0100
1030
,  // measure 22
2000
0000
0010
0000
0001
0000
0010
3000
,  // measure 23
0010
0100
0010
0000
1000
0000
0001
0000
,  // measure 24
2000
3010
0200
0301
,  // measure 25
0100
0001
0100
0000
0010
0000
1000
0000
,  // measure 26
0001
0010
0001
0000
1000
0000
0010
0000
,  // measure 27
0100
0100
0100
0000
0010
0010
0010
0000
,  // measure 28
0100
0010
0100
0010
0100
0000
0000
0000
,  // measure 29
0010
0000
0010
0000
0100
0010
0100
0000
,  // measure 30
0001
1000
0001
1000
,  // measure 31
0010
1000
0010
0000
0100
0001
0100
0000
,  // measure 32
0020
0230
0302
1003
,  // measure 33
0010
0000
0100
0000
0001
1000
0001
0000
,  // measure 34
1000
0010
0100
0001
,  // measure 35
1000
1000
1000
0000
0001
0001
0001
0000
,  // measure 36
1000
0001
1000
0001
1000
0000
0010
0000
,  // measure 37
0100
0000
0100
0000
0010
0100
0010
0000
,  // measure 38
1000
0001
1000
0001
,  // measure 39
0100
0001
0100
0000
0010
1000
0010
0000
,  // measure 40
0200
0320
2030
3001
,  // measure 41
0100
0000
0010
0000
1000
0001
1000
0000
,  // measure 42
0001
0100
0010
1000
,  // measure 43
0001
0001
0001
0000
1000
1000
1000
0000
,  // measure 44
0001
1000
0001
1000
0001
0000
0000
0000
,  // measure 45
0002
1000
0100
0103
,  // measure 46
0010
0100
0010
0000
1000
0001
1000
0000
,  // measure 47
1001
0000
0000
0000
0001
1000
0001
0000
,  // measure 48
0100
0100
0010
0010
,  // measure 49
0100
0000
0010
0000
0100
0010
0100
0000
,  // measure 50
0002
0203
0320
1030
,  // measure 51
2000
0000
3002
0000
,  // measure 52
2003
0000
3020
0030
,  // measure 53
0100
0100
0100
0000
0001
0000
1000
0000
,  // measure 54
0100
0100
0100
0000
1000
0000
0001
0000
,  // measure 55
1000
0001
0100
0001
,  // measure 56
1000
0100
1000
0001
,  // measure 57
1000
1000
1000
0000
0001
0000
0010
0000
,  // measure 58
0100
0100
0100
0000
1000
0000
0001
0000
,  // measure 59
0100
0001
0100
0001
0100
0000
0001
1000
,  // measure 60
0010
1000
0001
0100
;

//---------------dance-single - ----------------
#NOTES:
     dance-single:
     :
     Easy:
     3:
     0.293,0.331,0.081,0.362,0.000:
0020
0030
0010
0010
,
0200
0300
0100
0100
,
0002
0003
0001
0001
,
2000
0000
3001
0000
,
0001
0000
0001
0001
,
1000
0000
1000
1000
,
0010
0000
0010
0000
,
0100
0000
0100
0100
,
0010
0000
0010
0100
,
0010
0000
0100
0001
,
2000
0000
3002
0000
,
2003
0000
3020
0000
,
0130
0000
0001
0000
,
1000
0001
1000
0000
,
0010
0000
0100
0000
,
0010
0100
0010
0000
,
2000
3000
0002
0003
,
1000
0001
1000
0000
,
0020
0030
0200
0300
,
0010
0100
0010
0000
,
2000
0000
0001
0001
,
3001
0000
2002
3003
,
2000
0000
0010
3010
,
0100
0010
0100
0010
,
0200
0000
0010
0010
,
0310
0000
0100
0000
,
1001
0000
0110
0000
,
1001
1001
1001
0000
,
0002
0003
2000
3000
,
0001
1000
0001
1000
,
0002
0000
0103
0000
,
2000
0000
3010
0000
,
0010
0000
0100
0000
,
0010
0100
0010
0100
,
0020
0000
0130
0000
,
0200
0000
0310
0000
,
1000
1000
0001
0001
,
1000
0001
1000
0001
,
2000
0000
3010
0000
,
0002
0000
0103
0000
,
0100
0100
0010
0010
,
0100
0010
0100
0010
,
0200
0000
0310
0000
,
0020
0000
0130
0000
,
1001
0000
1000
1000
,
0002
0000
1003
0001
,
1000
0000
0010
0000
,
0100
0100
0010
0000
,
0110
0000
0100
0100
,
0020
0000
0130
0010
,
2000
3000
0002
0003
,
2000
0000
3001
0000
,
1000
0000
1000
1000
,
0001
0000
0001
0001
,
0100
0000
0100
0000
,
0010
0000
0010
0010
,
0100
0000
0100
0010
,
0100
0000
0010
1000
,
0002
0000
2003
0000
,
3002
0000
0203
0300
;
