#TITLE:Moo Moo Dollars;
#SUBTITLE:;
#ARTIST:Franz Tornado & Mad Cow Orchestra;
#TITLETRANSLIT:;
#SUBTITLETRANSLIT:;
#ARTISTTRANSLIT:;
#CREDIT:;
#BANNER:Moo Moo Dollars-bn.png;
#BACKGROUND:Moo Moo Dollars-bg.png;
#LYRICSPATH:;
#CDTITLE:Super Eurobeat 175.png;
#MUSIC:Moo Moo Dollars.mp3;
#OFFSET:-6.198;
#SAMPLESTART:54.690;
#SAMPLELENGTH:12.000;
#SELECTABLE:YES;
#BPMS:0.000=158.020;
#STOPS:;
#BGCHANGES:;

//---------------dance-single - ----------------
#NOTES:
     dance-single:
     :
     Hard:
     8:
     0.632,0.547,0.609,0.331,0.081:
1001
0010
1001
0010
,
1001
1001
1001
0010
,
1001
0100
1001
0100
,
1001
1001
1001
0100
,
1002
0103
2001
3010
,
1010
0101
1010
0101
,
0210
0310
0120
0130
,
2002
0000
0000
3003
,
1000
0010
1000
0010
1000
0010
0100
0010
,
0100
0001
0100
0001
0100
0010
0100
0001
,
0100
0010
0100
0001
1000
0100
1000
0010
,
1000
0010
0100
0001
0100
0010
0100
0000
,
0010
0100
0001
0100
0010
0100
0001
0100
,
0010
1000
0100
1000
0010
1000
0100
1000
,
0010
0100
0001
1000
0100
0010
0001
1000
,
0010
1000
0010
1000
0001
0100
0001
0100
,
0010
0110
0100
0101
,
0001
1000
0010
1000
0020
0000
1030
0000
,
0010
1000
0001
0100
0010
0100
0001
1000
,
2001
3001
1002
1003
,
0010
0110
0010
1001
,
0001
1000
0001
1000
0002
0000
0013
0000
,
0001
0010
0100
1000
0001
1000
0010
1000
,
1010
1010
0101
0101
,
2002
3000
0000
0000
0000
0000
0000
0000
0000
0000
0000
0000
0000
0000
0000
0000
0000
0000
0000
0000
0000
0000
0000
0000
0000
0000
0000
0000
0000
0000
0000
0000
0000
0000
0000
0000
0000
0000
0000
0000
0000
0000
0000
0000
0000
0000
0000
0000
0100
0000
0000
0000
0000
0000
0000
0000
0000
0000
0000
0000
0000
0000
0000
0000
0000
0000
0000
0000
0000
0000
0000
0000
0000
0000
0000
0000
0000
0000
0000
0000
0000
0000
0000
0000
0000
0000
0000
0000
0000
0000
0000
0000
0000
0000
0000
0000
1003
0000
0000
0000
0000
0000
0000
0000
0000
0000
0000
0000
0000
0000
0000
0000
0000
0000
0000
0000
0000
0000
0000
0000
0000
0000
0000
0000
0000
0000
0000
0000
0000
0000
0000
0000
0000
0000
0000
0000
0000
0000
0000
0000
0000
0000
0000
0000
1000
0000
0000
0000
0000
0000
0000
0000
0000
0000
0000
0000
0000
0000
0000
0000
0000
0000
0000
0000
0000
0000
0000
0000
0001
0000
0000
0000
0000
0000
0000
0000
0000
0000
0000
0000
0000
0000
0000
0000
0000
0000
0000
0000
0000
0000
0000
0000
,
2000
0000
0001
0000
3010
0000
0001
1000
,
0020
0130
0002
1003
,
0010
1000
0010
0000
0100
0001
0100
0000
,
0020
0000
0100
0000
0130
0000
0100
0001
,
0020
0000
0001
0000
0031
0010
0100
1000
,
0001
1000
0001
0000
1000
0001
1000
0000
,
0001
0000
0001
0000
1000
0000
1000
0000
0001
1000
0001
1000
0001
0000
0000
0000
,
1010
1010
0101
0101
,
0011
1100
2002
3003
,
0001
0010
0001
0010
0001
0010
0200
0000
,
1300
0010
1000
0010
1000
0000
1001
0000
,
1010
0101
1010
0101
,
1001
0110
2002
3003
,
0001
1000
0001
1000
0010
0100
0020
0000
,
0130
0001
1000
0100
0010
0000
0011
0000
,
2001
0010
0001
3010
,
1002
0100
1000
0103
,
1000
0000
0000
1000
0000
0000
1000
0000
0001
0000
0000
0001
0000
0000
0001
0000
,
0100
0000
0000
0100
0000
0000
0100
0000
0010
0000
0000
0010
0000
0000
0010
0000
,
1000
0010
1000
0010
1000
0000
0010
1000
0000
0001
0100
0000
0001
0000
1000
0000
,
2002
3003
0000
0000
,
0101
0101
1010
1010
,
1100
0011
2002
3003
,
1000
0100
1000
0100
1000
0100
0020
0000
,
0031
0100
0001
0100
0001
0000
1001
0000
,
0101
1010
0101
1010
,
1001
0110
2002
3003
,
1000
0001
1000
0001
0100
0010
0200
0000
,
0310
1000
0001
0010
0100
0000
1100
0000
,
1002
0100
1000
0103
,
2001
0010
0001
3010
,
0001
0000
0000
0001
0000
0000
0001
0000
1000
0000
0000
1000
0000
0000
1000
0000
,
0010
0000
0000
0010
0000
0000
0010
0000
0100
0000
0000
0100
0000
0000
0100
0000
,
0001
0100
0001
0100
0001
0000
0100
0001
0000
1000
0010
0000
1000
0000
0001
0000
,
2002
3003
0000
0000
,
0001
0100
0001
0100
0001
0100
0010
0100
,
0010
1000
0010
1000
0010
0100
0010
1000
,
0010
0100
0010
1000
0001
0010
0001
0100
,
0001
0100
0010
1000
0010
0100
0010
0000
,
0100
0010
1000
0010
0100
0010
1000
0010
,
0100
0001
0010
0001
0100
0001
0010
0001
,
0100
0010
1000
0001
0010
0100
1000
0001
,
0100
0001
0100
0001
1000
0010
1000
0010
;

//---------------dance-single - ----------------
#NOTES:
     dance-single:
     :
     Medium:
     6:
     0.457,0.485,0.322,0.304,0.000:
0002
1003
0020
0130
,
0100
0100
0110
0100
,
0020
0130
2000
3001
,
1000
0001
1001
0001
,
1001
0010
0110
0101
,
0101
0101
1001
0100
,
0110
1000
1001
2001
,
0002
0000
0000
3003
,
1000
0010
1000
0000
0010
0000
0100
0000
,
0001
0100
0001
0000
0100
0000
0010
0000
,
1000
0001
1000
0000
0001
0000
0010
0000
,
0001
0010
0001
0000
0010
0100
0010
0000
,
0100
1000
0100
0000
0010
0000
0001
0000
,
1000
0010
1000
0000
0010
0000
1000
0000
,
0100
0010
0001
0000
0010
0001
0010
0000
,
0100
1000
0010
0100
,
0001
1000
0010
1010
,
0010
1000
0010
1000
0010
0000
0100
0000
,
0100
0010
0010
0100
,
1010
1010
0101
0101
,
0001
0100
0010
1000
,
0001
1000
0001
1000
0010
0000
0100
0000
,
1000
1000
0001
0100
,
1000
0001
1001
0110
,
1010
0000
0101
0000
1010
0000
0010
1000
,
0010
0000
0100
0000
0001
1000
0001
0000
,
0010
0100
1000
0001
,
1000
0010
1000
0000
0001
0100
0001
0000
,
0100
0000
0010
0000
0110
0000
0010
0100
,
0010
1000
0001
0010
,
0100
0010
0100
0000
1000
0001
1000
0000
,
0001
1000
0001
1000
0001
1000
0001
0000
,
1000
1000
1001
1001
,
0001
0001
2002
3003
,
0001
1000
0001
0000
1000
0010
1000
0000
,
0020
0130
0002
1003
,
1000
1000
1010
1010
,
0010
0010
0220
0330
,
0010
1000
0010
0000
0100
0000
0001
0000
,
0100
0010
0100
0000
0001
0000
1000
0000
,
0002
0000
1000
1000
,
2003
0000
0001
0001
,
3002
0000
2003
0000
,
3020
0000
0230
0000
,
0310
0010
0010
0010
,
2002
0000
0000
3003
,
0001
0001
1001
1001
,
1000
1000
2002
3003
,
1000
0001
1000
0000
0001
0100
0001
0000
,
0200
0310
2000
3001
,
0001
0001
0101
0101
,
0100
0100
0220
0330
,
0100
0001
0100
0000
0010
0000
1000
0000
,
0010
0100
0010
0000
1000
0000
0001
0000
,
2000
0000
0001
0001
,
3002
0000
1000
1000
,
2003
0000
3002
0000
,
0203
0000
0320
0000
,
0130
0100
0100
0100
,
2002
0000
0000
3003
,
0001
0100
0001
0000
0100
0000
0010
0000
,
1000
0010
1000
0000
0010
0000
0100
0000
,
0001
1000
0001
0000
1000
0000
0100
0000
,
1000
0100
1000
0000
0100
0010
0100
0000
,
0010
0001
0010
0000
0100
0000
1000
0000
,
0001
0100
0001
0000
0100
0000
0001
0000
,
0010
0100
1000
0000
0100
1000
0100
0000
,
0010
0001
0100
0010
;

//---------------dance-single - ----------------
#NOTES:
     dance-single:
     :
     Easy:
     4:
     0.285,0.365,0.179,0.287,0.000:
1001
0000
0110
0000
,
1001
1001
1001
0000
,
0110
0000
1001
0000
,
0001
0001
1001
0000
,
0010
0000
0110
0000
,
0100
0100
0110
0000
,
1000
0000
0001
0000
,
2002
0000
0000
3003
,
0001
1000
0001
0000
,
1000
0010
1000
0000
,
0001
0100
0001
0000
,
1000
1000
0001
0001
,
1000
0010
0100
0000
,
0001
0010
0100
0000
,
1000
0010
0100
0000
,
0002
0000
2003
0000
,
3010
0000
0010
0000
,
0010
0010
0010
0100
,
0001
0001
1000
1000
,
0001
1000
0001
1000
,
0010
0000
0100
0000
,
0010
0010
0100
0000
,
0001
1000
0010
0100
,
0010
0010
0100
0100
,
0002
1000
1003
0000
,
2000
0001
3001
0000
,
0100
0000
1001
0000
,
0010
0000
1001
0000
,
0200
1000
1300
0000
,
2000
0010
3010
0000
,
0100
0000
1001
0000
,
1001
0000
1001
0000
,
0001
0001
1000
1000
,
0001
1000
1001
0000
,
2000
0000
0000
0000
,
3002
0000
0000
0003
,
0010
0100
0010
0100
,
0010
0010
0110
0000
,
0200
0000
0000
0300
,
0020
0000
0000
0030
,
2000
0000
0000
0000
,
3002
0000
0000
0000
,
2003
0000
3020
0000
,
0230
0000
0302
0000
,
2003
0001
0001
0001
,
3001
0000
0000
0000
,
1000
1000
0001
0001
,
1000
0001
1001
0000
,
0002
0000
0000
0000
,
2003
0000
0000
3000
,
0100
0010
0100
0010
,
0100
0100
0110
0000
,
0020
0000
0000
0030
,
0200
0000
0000
0300
,
0002
0000
0000
0000
,
2003
0000
0000
0000
,
3002
0000
0203
0000
,
0320
0000
2030
0000
,
3002
1000
1000
1000
,
1003
0000
0000
0000
,
1000
0001
1000
0000
,
0001
0100
0001
0000
,
1000
0010
1000
0000
,
0001
0001
1000
1000
,
0001
0100
0010
0000
,
1000
0100
0010
0000
,
0001
0100
0010
0000
,
2000
0000
3002
0000
,
0003
0000
0000
0000
;
