#TITLE:Made Of Fire;
#SUBTITLE:;
#ARTIST:Niko;
#TITLETRANSLIT:;
#SUBTITLETRANSLIT:;
#ARTISTTRANSLIT:;
#CREDIT:;
#BANNER:Made Of Fire-bn.png;
#BACKGROUND:Made Of Fire-bg.png;
#LYRICSPATH:;
#CDTITLE:cd.png;
#MUSIC:Made Of Fire.mp3;
#OFFSET:-6.240;
#SAMPLESTART:54.364;
#SAMPLELENGTH:12.000;
#SELECTABLE:YES;
#BPMS:0.000=155.090;
#STOPS:23.000=0.387
;
#BGCHANGES:;

//---------------dance-single - ----------------
#NOTES:
     dance-single:
     :
     Hard:
     8:
     0.596,0.526,0.529,0.408,0.000:
2002
0000
0000
3003
,
0220
0000
0000
0330
,
2000
0000
3002
0000
,
1003
0010
0100
0001
,
1000
1000
2000
0000
0000
0000
3001
0000
,
0000
0010
0200
0000
0310
0000
1001
0000
,
0010
0100
1001
0010
1000
0001
0100
0000
,
0010
0100
0002
0000
1003
0010
2000
0000
,
3010
1000
0001
1000
0001
0010
0100
0010
,
0002
0000
1003
0000
0010
1000
1001
0000
,
0001
1000
1001
0001
1000
0010
0100
0000
,
0010
0100
0002
0000
0013
0100
2000
0000
,
3100
1000
0001
1000
0001
1000
0010
0100
,
0002
0000
0103
0000
0010
1000
0001
0000
,
1000
0010
1000
0010
2000
0000
3010
0000
,
0100
0001
0100
0010
1000
0001
0010
0100
,
0010
0001
0000
0011
0000
0110
0000
2100
,
0000
0000
0000
3001
0000
1000
1001
0000
,
0001
0010
0100
1000
0020
0000
1030
0000
,
0010
1000
0001
0010
0100
1000
0010
1000
,
0010
1000
0000
1010
0000
0110
0000
0102
,
0000
0000
0000
1003
0000
0001
1001
0000
,
2000
0000
0100
0000
3001
0000
0010
0001
,
0000
1000
0100
0000
1001
0000
0011
0000
,
0200
0000
1000
0000
0310
0000
0001
1000
,
0000
0010
0100
0000
0110
0000
1001
0000
,
1020
0000
0100
0000
0130
0000
1000
0010
,
0000
0100
0010
0000
1100
0000
0011
0000
,
2001
0000
0001
0000
3010
0000
1000
0001
,
0000
0001
1000
0001
0100
0010
1000
0010
,
2002
0000
0000
0000
0000
3003
0000
0001
,
0200
0000
0310
0000
0101
0101
0000
0001
,
0020
0000
0130
0000
1100
1100
0000
0000
,
0200
0000
1300
0000
0100
1000
0010
0100
,
0001
0010
0100
1000
0001
0100
0001
0100
,
0020
0000
1030
0000
0101
0101
0000
0001
,
2000
0000
3001
0000
1100
1100
0000
0000
,
2001
3001
0210
0301
,
2001
0000
3010
0000
0100
0010
1000
0001
,
2000
0000
3100
0000
0011
0011
0000
0010
,
0002
0000
1003
0000
1100
1100
0000
0000
,
1001
0000
0110
0000
0100
0001
0010
0100
,
1000
0010
0100
0001
1000
0001
0010
0100
,
2000
0000
3001
0000
0101
0101
0000
0001
,
0020
0000
0130
0000
0110
0110
0000
0000
,
1001
0110
1010
0101
,
0011
1100
1002
0103
,
0100
0010
1001
0100
0001
1000
0010
0000
,
0100
0010
2000
0000
3001
0100
0002
0000
,
0103
0001
1000
0001
1000
0100
0010
0100
,
2000
0000
3001
0000
0100
0001
1001
0000
,
1000
0001
1001
1000
0001
0100
0010
0000
,
0100
0010
2000
0000
3100
0010
0002
0000
,
0013
0001
1000
0001
1000
0001
0100
0010
,
2000
0000
3010
0000
0100
0001
1000
1000
,
1000
0010
0100
0001
0100
0010
1000
0001
,
0010
0100
0010
0001
0100
0010
0100
0001
,
0100
0010
1000
0001
0100
0001
0100
0010
,
1000
0001
0010
0100
1000
0010
1001
0000
,
1001
0100
0001
0100
0010
0100
0001
0100
,
0010
1000
0100
1000
0010
1000
0001
1000
,
0010
0100
0001
0100
0001
1000
0010
0100
,
0002
0000
0103
0000
0010
0100
0001
0000
,
1001
0000
0000
0000
;

//---------------dance-single - ----------------
#NOTES:
     dance-single:
     :
     Medium:
     6:
     0.473,0.467,0.111,0.491,0.000:
0020
0000
0000
0030
,
0200
0000
0000
0300
,
0020
0000
0000
0030
,
2002
0000
0000
3003
,
1000
0000
0001
0000
1000
0000
0010
1000
,
0000
0001
0100
0101
,
0001
0100
0001
0000
1000
0010
1000
0000
,
0010
0100
0001
1000
,
0010
1000
0010
0000
0100
0001
0100
0000
,
2000
3002
0203
0320
,
1030
0010
1000
0000
0001
0100
0001
0000
,
0100
0010
1000
0001
,
0100
0001
0100
0000
0010
1000
0010
0000
,
0002
2003
3020
0230
,
0301
1000
0001
0000
0010
0000
1001
0000
,
1000
0010
1000
0000
0001
0100
0010
0000
,
0001
0100
0000
0100
0000
0100
0000
0200
,
0000
0000
0000
0310
0000
0001
0001
0000
,
1000
0001
1000
0000
0100
0000
1001
0000
,
0001
0100
0001
0000
1000
0010
0100
0000
,
1000
0010
0000
0010
0000
0010
0000
0020
,
0000
0000
0000
0130
0000
1000
1000
0000
,
0002
0000
0203
0000
0320
0000
1030
0010
,
0000
1000
0010
0000
1000
0000
1001
0000
,
0200
0000
0320
0000
0032
0000
1003
0001
,
0000
1000
0001
0000
0010
0000
1001
0000
,
2000
0000
3020
0000
0230
0000
0301
0100
,
0000
0001
0100
0000
0001
0000
1001
0000
,
0020
0000
0230
0000
0302
0000
1003
0001
,
0000
1000
0001
0001
1000
1000
0100
0100
,
0020
0000
0000
0000
0030
0000
0000
0001
,
1000
0000
0010
0000
0100
0001
0000
1000
,
0010
0000
0100
0000
0001
1000
0000
0000
,
1000
0000
0001
0000
1000
0010
0100
0001
,
0000
1000
0100
0010
0001
0000
1000
0001
,
0010
0000
0100
0000
1000
0001
0000
1000
,
0001
0000
0010
0000
0100
1000
0000
0000
,
0010
1010
0100
0101
,
0001
0000
1001
0000
0010
0000
1000
1000
,
0001
0000
0100
0000
0010
2000
0000
3001
,
0100
0000
0010
0000
1000
0002
0000
0003
,
0100
0000
0100
0000
0001
0100
0010
1000
,
0000
0001
0010
0100
1000
0000
0001
1000
,
0100
0000
0010
0000
0001
2000
0000
3001
,
1000
0000
0100
0000
0010
0002
0000
0003
,
0100
0101
0010
1010
,
0002
0000
2003
0000
3020
0000
1030
0100
,
1000
0010
1000
0000
0001
0100
0001
0000
,
0100
0010
1000
0001
,
0100
0001
0100
0000
0010
1000
0010
0000
,
0002
2003
3020
0230
,
0301
0100
0001
0000
1000
0010
1000
0000
,
0010
0100
0001
1000
,
0010
1000
0010
0000
0100
0001
0100
0000
,
2000
3002
0203
0320
,
1030
0010
1000
0010
0100
0001
0100
0000
,
0010
0100
0001
1000
,
0001
1000
0001
0000
0010
0001
0010
0000
,
0200
2300
3020
0130
,
0001
0100
0001
0100
0010
0100
0001
0000
,
2000
3020
0230
0301
,
1000
0010
1000
0000
0010
0100
0001
0000
,
2000
3020
0230
0302
,
1003
0000
0000
0000
;

//---------------dance-single - ----------------
#NOTES:
     dance-single:
     :
     Easy:
     4:
     0.342,0.351,0.121,0.306,0.000:
2000
0000
0000
0000
,
3002
0000
0000
0000
,
0023
0000
0000
0000
,
0230
0000
0000
0000
,
1300
0001
0001
0001
,
0000
1000
1000
1000
,
0001
1000
0001
0010
,
0001
0010
0100
1000
,
0001
0001
1000
1000
,
0010
0100
0001
1000
,
0001
0100
0001
1000
,
0001
0100
0010
0100
,
0001
0001
1000
1000
,
0020
0000
0100
0130
,
0001
1000
0010
1000
,
0100
0010
0001
1000
,
0020
0000
0100
0130
,
0002
0000
2003
0000
,
3100
0010
0001
0010
,
0001
1000
0100
0010
,
0002
0000
1000
1003
,
0200
0000
0320
0000
,
0130
0001
0200
0300
,
0001
0010
0200
1300
,
0010
0010
0020
0030
,
0100
0010
1001
0000
,
0001
1000
0020
0030
,
1000
1000
0002
0013
,
0100
0010
0002
0003
,
0100
0100
0010
0010
,
2002
0000
0000
3003
,
0100
0010
1001
0000
,
0001
1000
1001
0000
,
0100
0100
0001
0001
,
1000
0010
0100
0001
,
0001
0010
0011
0000
,
0100
1000
1100
0000
,
2000
3001
0020
0130
,
2000
3001
0200
0310
,
0010
0100
1001
0000
,
1000
0001
1001
0000
,
0010
0010
1000
1000
,
0001
0100
0010
1000
,
1000
0100
1100
0000
,
0010
0001
0011
0000
,
0002
1003
0200
0310
,
0002
1003
0020
0230
,
0310
0010
0100
0100
,
0001
1000
0010
0100
,
0001
1000
0001
0001
,
1000
0001
1000
1000
,
0001
0100
0001
1000
,
1000
0010
0100
0010
,
1000
1000
0001
0001
,
0200
0000
0010
0310
,
0001
0001
1000
1001
,
0200
0000
0010
0310
,
1000
1000
0001
0001
,
0010
0001
1000
0100
,
0010
0010
0100
1001
,
0002
0000
1000
1003
,
2000
0000
3020
0000
,
0130
0100
0010
0010
,
1001
0000
0000
0000
;

//---------------dance-solo - Copied from ----------------
#NOTES:
     dance-solo:
     Copied from:
     Hard:
     8:
     0.596,0.526,0.529,0.408,0.000: // measure 1
200200
000000
000000
300300
,  // measure 2
002002
000000
000000
003003
,  // measure 3
020000
000000
030020
000000
,  // measure 4
100030
001000
010000
000100
,  // measure 5
100000
100000
200000
000000
000000
000000
300100
000000
,  // measure 6
000000
001000
020000
000000
031000
000000
100100
000000
,  // measure 7
010000
000010
100001
000100
100000
000010
001000
000000
,  // measure 8
000001
000001
020000
000000
031000
001000
200000
000000
,  // measure 9
301000
100000
000100
100000
000100
001000
000001
010000
,  // measure 10
000200
000000
100300
000000
000001
100000
100001
000000
,  // measure 11
001000
000100
010010
001000
000010
001000
000001
000000
,  // measure 12
001000
000010
020000
000000
031000
000100
000020
000000
,  // measure 13
100030
000001
010000
000010
001000
000100
001000
000001
,  // measure 14
020000
000000
031000
000000
100000
000010
000010
000000
,  // measure 15
100000
001000
100000
001000
200000
000000
301000
000000
,  // measure 16
010000
000100
010000
001000
100000
000100
001000
000010
,  // measure 17
001000
000100
000000
001100
000000
100001
000000
201000
,  // measure 18
000000
000000
000000
300100
000000
100000
100001
000000
,  // measure 19
000100
001000
000010
100000
002000
000000
103000
000000
,  // measure 20
001000
100000
000100
001000
000010
100000
001000
100000
,  // measure 21
001000
100000
000000
101000
000000
001100
000000
000201
,  // measure 22
000000
000000
000000
000310
000000
001000
100001
000000
,  // measure 23
200000
000000
000010
000000
300001
000000
001000
000100
,  // measure 24
000000
010000
001000
000000
100100
000000
011000
000000
,  // measure 25
002000
000000
100000
000000
013000
000000
000010
100000
,  // measure 26
000000
001000
010000
000000
011000
000000
100100
000000
,  // measure 27
102000
000000
010000
000000
013000
000000
100000
001000
,  // measure 28
000000
010000
001000
000000
110000
000000
100001
000000
,  // measure 29
200100
000000
000100
000000
300001
000000
100000
000100
,  // measure 30
000000
000100
100000
000100
010000
001000
100000
001000
,  // measure 31
200020
000000
000000
000000
000000
300030
000000
010000
,  // measure 32
002000
000000
103000
000000
010100
010100
000000
000100
,  // measure 33
002000
000000
003001
000000
000110
000110
000000
000000
,  // measure 34
000002
000000
010003
000000
001000
100000
001000
010000
,  // measure 35
000100
001000
000001
010000
000100
100000
000100
010000
,  // measure 36
002000
000000
103000
000000
100010
100010
000000
000001
,  // measure 37
200000
000000
300010
000000
011000
011000
000000
000000
,  // measure 38
200100
300100
021000
030100
,  // measure 39
200100
000000
301000
000000
010000
001000
100000
000100
,  // measure 40
200000
000000
310000
000000
001100
001100
000000
001000
,  // measure 41
000200
000000
100300
000000
100001
100001
000000
000000
,  // measure 42
100010
000000
001001
000000
100000
001000
010000
000001
,  // measure 43
100000
000010
001000
000100
100000
000001
010000
000100
,  // measure 44
200000
000000
300100
000000
010100
010100
000000
000100
,  // measure 45
002000
000000
003010
000000
101000
101000
000000
000000
,  // measure 46
100100
011000
101000
001100
,  // measure 47
001001
100010
002010
013000
,  // measure 48
000001
000100
101000
010000
000100
100000
001000
000000
,  // measure 49
010000
001000
200000
000000
300100
010000
000200
000000
,  // measure 50
010300
000100
100000
000100
100000
001000
010000
000010
,  // measure 51
200000
000000
300100
000000
001000
000100
100001
000000
,  // measure 52
100000
000100
100100
100000
000100
010000
001000
000000
,  // measure 53
010000
001000
200000
000000
300010
001000
000200
000000
,  // measure 54
001300
000100
100000
000100
100000
000100
010000
001000
,  // measure 55
200000
000000
301000
000000
010000
000010
100000
100000
,  // measure 56
100000
001000
001000
010000
000010
001000
000100
100000
,  // measure 57
001000
010000
001000
100000
000100
001000
000010
001000
,  // measure 58
000100
000100
100000
000100
010000
000100
010000
001000
,  // measure 59
000100
000001
100000
000010
001000
000100
100001
000000
,  // measure 60
100001
001000
000100
010000
001000
010000
000100
010000
,  // measure 61
001000
100000
010000
100000
001000
100000
000100
100000
,  // measure 62
001000
010000
000100
010000
000100
100000
001000
010000
,  // measure 63
000200
000000
010300
000000
001000
010000
000100
000000
,  // measure 64
100001
000000
000000
000000
;
