#TITLE:King Forever;
#SUBTITLE:;
#ARTIST:Paul Harris;
#TITLETRANSLIT:;
#SUBTITLETRANSLIT:;
#ARTISTTRANSLIT:;
#CREDIT:;
#BANNER:King Forever-bn.png;
#BACKGROUND:King Forever-bg.png;
#LYRICSPATH:;
#CDTITLE:Super Eurobeat 135.png;
#MUSIC:King Forever.mp3;
#OFFSET:-7.951;
#SAMPLESTART:51.250;
#SAMPLELENGTH:12.000;
#SELECTABLE:YES;
#BPMS:0.000=155.000;
#STOPS:;
#BGCHANGES:;

//---------------dance-single - ----------------
#NOTES:
     dance-single:
     :
     Medium:
     5:
     0.391,0.409,0.157,0.255,0.000:
1000
1000
1000
0000
,
0001
0001
0001
0000
,
1000
0001
1000
0000
,
2002
0000
0000
3003
,
1000
0001
1000
0000
0020
0000
0030
0000
,
1000
0100
1000
0000
0001
0010
0001
0000
,
0100
0010
0100
0000
1001
0000
0000
0000
,
0010
0100
0010
0000
0001
0010
0001
0000
,
0100
1000
0100
0000
2000
0000
3000
0000
,
0010
0100
0010
0000
0001
0010
0001
0000
,
0001
1000
0010
0100
,
0200
0000
0020
0330
,
0110
0100
0100
0010
,
0010
1000
1000
0001
,
0001
0000
0010
0000
0100
0000
1000
0010
,
0000
1000
0000
0010
0000
1000
0100
0000
,
1000
1000
0001
0001
,
0010
0010
0100
0100
,
1000
0000
0001
0000
0100
0000
0010
0100
,
0000
0001
0000
1000
0000
0100
0010
0000
,
1001
0010
1000
0100
,
1000
0000
0001
0000
0001
0100
0010
0000
,
1000
0000
0100
0000
0010
0000
0001
1000
,
0000
0010
0000
0101
0000
0010
1000
0000
,
0100
1000
0010
0100
,
0001
1000
0100
0010
,
0001
0100
0010
0000
0010
1000
0100
0000
,
0100
1000
0010
1000
0000
0000
1001
0000
,
0010
0000
0000
0110
0000
0000
0001
0000
,
2000
0000
0000
3010
0000
0000
0100
0000
,
0002
0000
0000
0013
0000
0000
0100
0000
,
2000
0000
0000
3020
0000
0000
0130
0000
,
1001
0000
0010
1000
0000
0000
0100
0000
,
1000
0010
0100
0010
0000
0000
0110
0000
,
0001
0000
1000
0010
0000
0010
1000
0000
,
0020
0130
0002
1003
,
0002
0100
1003
1000
,
0020
0100
1030
1000
,
0200
0010
1300
1000
,
0002
0010
0103
1000
,
0010
0000
1000
0100
0000
0100
1000
0000
,
0010
0100
0010
0100
0000
0000
0001
0000
,
1000
0000
0100
1000
0000
0010
0100
0000
,
1001
0110
1001
0110
,
0001
1000
0001
0000
0200
0000
0300
0000
,
0001
0010
0001
0000
1000
0100
1000
0000
,
0010
0100
0010
0000
1001
0000
0000
0000
,
0100
0010
0100
0000
1000
0100
1000
0000
,
0010
0001
0010
0000
0002
0000
0003
0000
,
0100
0010
0100
0000
1000
0100
1000
0000
,
1000
0001
0100
0010
,
0020
0000
0200
0330
,
2000
0000
0001
0001
,
3002
0000
0100
0100
,
0203
0000
0010
0010
,
0320
0000
0100
0100
,
0130
0000
0100
0000
,
0110
0000
1001
0000
,
0002
0000
0000
0000
,
2003
0000
3010
0000
;

//---------------dance-single - ----------------
#NOTES:
     dance-single:
     :
     Easy:
     3:
     0.255,0.263,0.108,0.206,0.000:
2000
0000
0000
0000
,
3002
0000
0000
0000
,
2003
0000
0000
3000
,
0220
0000
0000
0330
,
0001
0001
0001
0000
,
1000
1000
1000
0000
,
0010
0010
0010
0000
,
0100
0100
0010
0100
,
0001
0001
0001
0000
,
1000
1000
1000
0000
,
0010
1000
0100
0010
,
0002
0000
1003
0000
,
0010
0010
1000
0000
,
0001
0100
0010
0000
,
1000
0100
0010
0001
,
1000
0000
0010
0000
,
1001
0000
0001
0001
,
0100
0000
0010
1000
,
1001
0000
0010
0100
,
0001
0000
1000
0000
,
0020
0000
0000
0000
,
0130
0001
1000
0100
,
2000
0000
0000
0000
,
3010
0100
0001
1000
,
0002
0000
0103
0000
,
0010
1000
0100
0010
,
0020
0000
0130
0000
,
1001
0000
0110
0000
,
0001
0001
1000
0000
,
0010
0010
0100
0000
,
1000
1000
0001
0000
,
0100
0100
0001
0000
,
1000
0010
1000
0000
,
0010
0100
1001
0000
,
0100
0010
0001
0000
,
1000
0010
0100
1001
,
0010
1000
0200
0000
,
0310
0001
2000
0000
,
3001
0010
0200
0000
,
1300
0001
0200
0000
,
0301
1000
0100
0000
,
0001
0010
0011
0000
,
0100
0000
1000
0000
,
0010
1000
0001
0110
,
0001
1000
0001
0000
,
0100
0010
0100
0000
,
0001
0010
0001
0000
,
0100
1000
0010
0000
,
1000
1000
1000
0000
,
0010
0010
0010
0000
,
0100
0100
0100
0000
,
0002
0000
1003
0000
,
2002
0000
0000
0000
,
3003
0000
0000
0000
,
0020
0000
0000
0000
,
0030
0000
0000
0000
,
0200
0000
0000
0000
,
0300
0000
0000
0000
,
0001
0000
1000
0000
,
2002
0000
3003
0000
;

//---------------dance-single - ----------------
#NOTES:
     dance-single:
     :
     Hard:
     8:
     0.603,0.586,0.265,0.520,0.191: // measure 1
2000
3002
2003
3002
,  // measure 2
0203
0320
0230
0320
,  // measure 3
0130
0000
0110
0000
,  // measure 4
2002
0000
0000
3003
,  // measure 5
0010
1000
0010
1000
0020
0000
0000
0000
1030
0000
0100
0000
0000
0000
0110
0000
,  // measure 6
0000
0000
0001
0000
0100
0010
0000
0100
0010
0000
0100
0010
0000
0100
0010
0000
,  // measure 7
1000
0010
1000
0010
2000
0000
0000
0000
3100
0000
1000
0000
0000
0000
1001
0000
,  // measure 8
0000
0000
0100
0000
0001
0000
0100
0000
0010
0000
0100
0010
0000
0100
0010
0000
,  // measure 9
0100
0001
0100
0001
0200
0000
0000
0000
0310
0000
1000
0000
0000
0000
0110
0000
,  // measure 10
0000
0000
0010
1000
0000
0010
0000
1000
0001
0000
1000
0010
0000
0100
0010
0000
,  // measure 11
1000
0010
1000
0010
0100
0000
0001
0000
1000
0000
0100
0000
0010
0000
0001
0000
,  // measure 12
2000
3020
0230
0000
,  // measure 13
0301
0000
1000
0010
1000
0010
0000
1010
,  // measure 14
0000
0000
0100
0010
0100
0001
0000
0011
,  // measure 15
0000
0000
0100
1000
0010
2000
0000
3020
,  // measure 16
0000
0130
0000
1001
0000
0010
0100
0000
,  // measure 17
1001
0000
0001
0010
0100
0010
0000
0110
,  // measure 18
0000
1000
0001
1000
0100
1000
0000
1010
,  // measure 19
0000
1000
0010
1000
0100
0010
0000
0002
,  // measure 20
0000
2003
0000
3020
0000
0130
0010
0000
,  // measure 21
2001
0010
0001
3010
,  // measure 22
0010
0100
0001
1000
0100
0010
0001
1000
,  // measure 23
0200
0000
1000
0000
0010
0000
1300
0010
,  // measure 24
0000
1000
0000
1010
0000
0001
0100
0000
,  // measure 25
1001
0000
0100
0010
0100
0002
0000
2003
,  // measure 26
0000
3200
0000
2300
0000
3010
1000
0000
,  // measure 27
0010
0100
0001
0000
0100
0010
1000
0000
,  // measure 28
1000
0000
0001
0000
0100
0000
0001
0000
0000
0000
0100
0001
0100
0000
0000
0000
,  // measure 29
0200
0000
0001
0000
0310
0000
0010
0100
,  // measure 30
0020
0000
1000
0000
0130
0000
1000
0001
,  // measure 31
0200
0000
0010
0000
0301
0000
0001
0100
,  // measure 32
0002
0000
0100
0000
0013
0000
1000
0001
,  // measure 33
0100
0000
0100
0001
0010
0000
0010
0100
,  // measure 34
1000
0000
1000
0010
0100
0000
0100
0001
,  // measure 35
0010
0001
1000
0001
0100
0010
0100
0010
,  // measure 36
0200
0310
1001
0110
,  // measure 37
2001
0000
0010
0000
3100
0000
0100
1000
,  // measure 38
0002
0000
1000
0000
0103
0000
0100
0001
,  // measure 39
0020
0000
0001
0000
0130
0000
0100
1000
,  // measure 40
0200
0000
0010
0000
1300
0000
0001
0100
,  // measure 41
0020
0000
0130
0001
0100
0010
0100
0000
,  // measure 42
0020
0000
1030
0001
0100
0010
1000
0000
,  // measure 43
0001
0100
0001
0000
1000
0010
1000
0000
,  // measure 44
1001
0110
1001
0110
,  // measure 45
0100
0001
0100
0001
0200
0000
0000
0000
0301
0000
0010
0000
0000
0000
0110
0000
,  // measure 46
0000
0000
1000
0000
0010
0100
0000
0010
0100
0000
0010
0100
0000
0010
0100
0000
,  // measure 47
0001
0100
0001
0100
0002
0000
0000
0000
0013
0000
0001
0000
0000
0000
1001
0000
,  // measure 48
0000
0000
0010
0000
1000
0000
0010
0000
0100
0000
0010
0100
0000
0010
0100
0000
,  // measure 49
0010
1000
0010
1000
0020
0000
0000
0000
0130
0000
0001
0000
0000
0000
0110
0000
,  // measure 50
0000
0000
0100
0001
0000
0100
0000
0001
1000
0000
0001
0100
0000
0010
0100
0000
,  // measure 51
0001
0100
0001
0100
0010
0000
1000
0000
0001
0000
0010
0000
0100
0000
1000
0000
,  // measure 52
0002
0203
0320
1030
,  // measure 53
1001
0002
0203
0302
,  // measure 54
0013
0100
0010
0000
0001
1000
0001
0000
,  // measure 55
0002
0100
0010
1003
,  // measure 56
2000
0010
0001
3100
,  // measure 57
0100
1000
0100
0000
0010
0001
0010
0000
,  // measure 58
0001
0100
0001
0000
0100
0010
0100
0000
,  // measure 59
0010
1000
0010
0100
0010
1000
0010
0100
,  // measure 60
2002
3003
0220
0330
;
