#TITLE:Killer Queen;
#SUBTITLE:;
#ARTIST:Tommy B. Waters;
#TITLETRANSLIT:;
#SUBTITLETRANSLIT:;
#ARTISTTRANSLIT:;
#CREDIT:;
#BANNER:Killer Queen-bn.PNG;
#BACKGROUND:Killer Queen-bg.PNG;
#LYRICSPATH:;
#CDTITLE:cd.png;
#MUSIC:Tommy B. Waters - Killer Queen.mp3;
#OFFSET:-5.880;
#SAMPLESTART:27.374;
#SAMPLELENGTH:12.000;
#SELECTABLE:YES;
#BPMS:0.000=169.980;
#STOPS:;
#BGCHANGES:;

//---------------dance-single - ----------------
#NOTES:
     dance-single:
     :
     Medium:
     6:
     0.476,0.429,0.090,0.143,0.004:
2000
0000
3001
0000
1000
0001
0000
0010
,
0000
0100
0000
1000
0001
0000
0100
0000
,
2000
0000
3001
0000
1000
0010
0000
0100
,
0000
0001
0000
1000
0010
0000
1000
0000
,
0001
1000
0010
0000
1000
0000
0100
0000
,
1000
0001
0100
0000
0010
0000
1000
0000
,
0100
0010
0100
0000
1000
0000
0001
0000
,
1000
0001
0010
0000
0100
0000
1000
0000
,
0010
0000
1000
0000
0001
1000
0010
0000
,
1000
0000
0010
0000
0100
0010
0100
0000
,
0001
0000
0100
0000
0001
0010
0001
0000
,
1000
1100
0011
0101
,
0010
0000
1000
0000
1000
0010
0100
0000
,
0010
0000
0100
0000
0010
0100
0010
0000
,
0010
0000
1000
0000
0100
0010
0001
0000
,
1000
0001
2000
0000
,
3001
0000
0000
0000
1000
0010
0100
0000
,
0010
0100
0001
0000
0010
0001
0010
0000
,
0001
1000
0010
0000
0100
0000
0001
0000
,
0100
0010
1001
0010
,
1001
0000
0100
0000
0001
0010
0001
0000
,
1000
0001
0100
0000
0010
0000
1000
0000
,
0001
0010
0001
0000
1000
0000
0001
0000
,
0200
0000
0301
0000
1000
0010
0000
0100
,
0000
0001
0000
1000
0010
0000
1000
0000
,
0002
0000
1003
0000
0010
1000
0000
0001
,
0000
1000
0000
0100
0010
0000
0001
0000
,
0002
0000
1003
0000
0001
1000
0000
0100
,
0000
0010
0000
0001
0100
0000
0010
0000
,
0020
0000
0130
0000
0001
0100
0000
0010
,
0000
1000
0000
0001
0100
0000
0001
0000
,
0001
1000
0010
0000
0100
0001
0100
0000
,
0001
0010
0001
1000
,
1000
0010
0100
0000
0001
0010
0001
0000
,
1000
0000
0001
0000
0001
0100
0001
0000
,
0010
0001
0010
0000
0001
0000
1000
0000
,
1000
0100
0010
0000
0010
0000
0001
0000
,
0100
0010
0100
0000
0001
0000
1000
0000
,
0010
0100
0001
0000
0100
0000
1001
0000
,
0101
0000
0100
0000
0001
1000
0010
0000
,
0100
0000
0001
0000
0010
0100
0010
0000
,
0001
0000
0010
0000
0001
0010
0001
0000
,
0100
0001
0002
0000
,
1003
0000
0000
0000
0001
0100
0010
0000
,
0100
0010
1000
0000
0100
1000
0100
0000
,
1000
0001
0100
0000
0010
0000
1000
0000
,
0010
0100
1001
0100
,
1001
0000
0010
0000
1000
0100
1000
0000
,
0001
1000
0010
0000
0100
0000
0001
0000
,
1000
0100
1000
0000
0001
0000
1000
0000
,
0020
0000
1030
0000
0001
0100
0000
0010
,
0000
1000
0000
0001
0100
0000
0001
0000
,
2000
0000
3001
0000
0100
0001
0000
1000
,
0000
0001
0000
0010
0100
0000
1000
0000
,
2000
0000
3001
0000
1000
0001
0000
0010
,
0000
0100
0000
1000
0010
0000
0100
0000
,
0200
0000
0310
0000
1000
0010
0000
0100
,
0000
0001
0000
1000
0010
0000
1000
0000
,
1000
0000
0001
1000
0010
0000
1000
0000
,
0001
0100
0001
0010
,
0001
0000
1000
0010
1000
0000
0010
0000
,
0100
0010
0100
0001
,
0010
0000
0001
0100
0001
0000
0100
0000
,
0010
1000
0010
0100
,
0001
0000
1000
0100
0010
0000
0001
0000
,
0100
0000
1000
0001
,
0002
1000
0100
0013
,
2000
0010
0001
3100
,
1000
0001
0010
0000
0001
0000
1000
0000
,
0100
0010
0100
0000
1000
0000
0001
0000
,
0200
0001
0010
0301
,
2000
0100
0001
3010
,
1000
0001
1000
0000
0001
0100
0001
0000
,
1000
0000
0000
0010
0000
0000
1000
0000
0000
0000
0010
0000
1001
0000
0000
0000
;

//---------------dance-single - ----------------
#NOTES:
     dance-single:
     :
     Easy:
     4:
     0.386,0.396,0.081,0.260,0.000:
2000
3001
0001
1000
,
0001
0010
0100
0001
,
0020
0130
0001
1000
,
0001
0010
0100
1000
,
0001
0001
1000
0001
,
0010
0100
1000
0001
,
1000
0010
0100
0010
,
1000
0001
1000
0001
,
0002
0000
1003
0000
,
2000
0000
3001
0000
,
0002
0010
0100
1003
,
2000
0010
0100
3001
,
0010
0100
0001
1000
,
0001
0000
0010
0100
,
0010
0000
0001
0010
,
0100
0100
2000
0000
,
3001
0000
0001
0100
,
1000
0000
0001
0010
,
0100
0000
1000
0100
,
0001
0010
0100
1000
,
0100
1000
0020
0000
,
1030
0000
0002
0000
,
1003
0000
0100
1000
,
0002
0013
1000
0100
,
0001
0010
1000
0100
,
2000
3100
0001
0010
,
0100
0001
0010
1000
,
0200
0310
0001
0010
,
1000
0100
0001
0010
,
0002
0103
1000
0001
,
0110
0000
1010
0000
,
0001
0010
1000
0100
,
0001
0010
1000
0001
,
0000
1000
0001
0000
,
1000
0001
0010
0100
,
2000
0000
3001
0000
,
0002
0000
1003
0000
,
0010
1000
0100
0000
,
1000
0001
0010
1000
,
0001
0010
1000
0100
,
1000
0010
0100
0001
,
0100
1000
0001
0010
,
1000
0100
0020
0000
,
1030
0000
0001
1000
,
0100
0000
1000
0001
,
1000
0000
0010
1000
,
0100
0001
0010
1000
,
0100
1000
0002
0000
,
1003
0000
0020
0000
,
0031
0000
0001
1000
,
0200
1300
0001
0010
,
1000
0100
0001
0010
,
0200
1300
0001
0010
,
1000
0100
0001
0010
,
0002
1003
0100
0001
,
0010
0100
0001
0100
,
2000
3001
0010
1000
,
0100
0001
0100
1000
,
0002
1000
0010
0103
,
0200
1000
0001
1300
,
0002
1000
0100
1003
,
0200
1000
0001
1300
,
0020
1000
0100
1030
,
0002
0100
1000
0013
,
0002
0100
1000
0103
,
1000
0010
1000
0100
,
1000
0100
0100
0100
,
0010
0001
0010
0100
,
1001
0010
0010
0010
,
1001
0100
0100
0100
,
1000
0010
0100
0001
,
0100
1000
0001
0100
,
1001
0100
1001
0100
,
1001
0000
0000
0110
0000
0000
1001
0000
;

//---------------dance-single - ----------------
#NOTES:
     dance-single:
     :
     Beginner:
     2:
     0.265,0.264,0.063,0.286,0.000:
2000
0000
3001
0000
,
0002
0000
1003
0000
,
0002
0000
1003
0000
,
0020
0000
1030
0000
,
1000
0000
0001
0000
,
1000
0000
0001
0000
,
1000
0000
0010
0000
,
0100
0000
1000
0000
,
0001
0100
1000
0000
,
0001
0010
1000
0000
,
0001
0100
1000
0000
,
0001
0000
1000
0000
,
0001
0000
1000
0000
,
0010
0000
1000
0000
,
0100
0000
1000
0000
,
0001
0000
2000
0000
,
3001
0000
0001
0000
,
0100
0000
0001
0000
,
1000
0001
0010
0100
,
1000
0001
0100
0000
,
1000
0000
0020
0000
,
1030
0000
0200
0000
,
0301
0000
0001
0100
,
2000
0000
3001
0000
,
0020
0000
0130
0000
,
0200
0000
1300
0000
,
0002
0000
1003
0000
,
0020
0000
0130
0000
,
2000
0000
3100
0000
,
0002
0000
0103
0000
,
2000
0000
3010
0000
,
1000
0000
0001
0000
,
1000
0001
0100
1000
,
0001
0000
1000
0000
,
0001
0010
1000
0100
,
0001
0000
1000
0000
,
0001
0000
1000
0000
,
0010
0000
0100
0000
,
0001
0010
1000
0001
,
0100
0000
1000
0000
,
0001
0000
1000
0000
,
0001
1000
0001
0000
,
1000
0000
0002
0000
,
1003
0000
0001
0000
,
1000
0000
0001
0000
,
0010
0000
0100
0001
,
0100
1000
0001
0000
,
1000
0000
0002
0000
,
1003
0000
0200
0000
,
1300
0000
0001
0000
,
2000
0000
3001
0000
,
0200
0000
1300
0000
,
0020
0000
0130
0000
,
0200
0000
0310
0000
,
0002
0000
0103
0000
,
0200
0000
0301
0000
,
0020
0000
0130
0000
,
0002
0000
1003
0000
,
2000
0000
3001
0000
,
0002
0100
1003
0000
,
0020
0000
0130
0000
,
0001
0010
1000
0001
,
0200
0000
1300
0000
,
0002
0100
1003
0000
,
0020
0000
0130
0000
,
0001
0100
1000
0001
,
0100
0000
0010
0000
,
1001
0000
0010
0000
,
1001
0000
0000
0000
,
1001
0000
0000
0000
,
1001
0000
0100
0000
,
1001
0000
0010
0000
,
1001
0000
0000
0000
,
1000
0000
0000
0010
0000
0000
1001
0000
;

//---------------dance-single - ----------------
#NOTES:
     dance-single:
     :
     Hard:
     8:
     0.592,0.561,0.483,0.116,0.004: // measure 1
0002
0000
1003
0000
0010
1000
0000
0010
,  // measure 2
0000
1000
0000
0100
0010
0000
0011
0000
,  // measure 3
0002
0000
1003
0000
0010
0100
0000
0020
,  // measure 4
0000
1030
0000
0001
1000
0000
1001
0000
,  // measure 5
1000
0010
1000
0000
0001
0010
0100
0000
,  // measure 6
0010
0001
0010
0001
1000
0010
1000
0000
,  // measure 7
0010
0000
0100
0001
0100
0000
0010
0000
,  // measure 8
1000
0001
0010
0100
0010
0001
1000
0000
,  // measure 9
0010
1000
0010
0000
0100
0001
0100
0000
,  // measure 10
0010
0100
0010
0000
1000
0001
1000
0000
,  // measure 11
0001
0010
0100
0000
1000
0010
1000
0000
,  // measure 12
1010
1100
0110
1001
,  // measure 13
1000
0000
0010
0000
1000
0001
0010
0000
,  // measure 14
0001
0010
0001
0000
1000
0100
1000
0000
,  // measure 15
0001
1000
0001
0000
1000
0010
0100
0001
,  // measure 16
1000
0001
1000
0010
1010
0000
1100
0000
,  // measure 17
0110
0000
1001
0000
1000
0100
1000
0000
,  // measure 18
0001
0100
1000
0000
0100
0010
1000
0000
,  // measure 19
0010
0100
0010
0000
1001
0000
0110
0000
,  // measure 20
1010
1001
0110
1000
,  // measure 21
0001
0000
0100
0000
1000
0001
0010
0000
,  // measure 22
0100
1000
0100
0000
1000
0100
0010
0100
,  // measure 23
1000
0100
1000
0000
1001
0000
1010
0000
,  // measure 24
0020
0000
1030
0000
0100
1000
0000
1010
,  // measure 25
0000
1100
0000
0001
0100
0000
1010
0000
,  // measure 26
0002
0000
0013
0000
1000
0010
0000
1100
,  // measure 27
0000
1010
0000
0100
1000
0000
1001
0000
,  // measure 28
0020
0000
0130
0000
0001
0010
0000
1010
,  // measure 29
0000
0101
0000
0010
1000
0000
1100
0000
,  // measure 30
0200
0000
0310
0000
0100
0010
0000
0110
,  // measure 31
0000
1001
0000
0100
1000
0000
0101
0000
,  // measure 32
1000
0001
0100
0000
0010
1000
0100
0000
,  // measure 33
1000
0100
1000
0001
0010
1000
0010
0000
,  // measure 34
0001
0100
0001
0000
0001
0010
0100
0000
,  // measure 35
0100
1000
0010
0100
0010
1000
0100
0000
,  // measure 36
1000
0001
0100
0000
0010
1000
0100
0000
,  // measure 37
0010
0001
0010
0000
0100
1000
0100
0000
,  // measure 38
1000
0100
1000
0000
0001
0010
0100
0000
,  // measure 39
1000
0001
0100
0010
1000
0000
0100
0000
,  // measure 40
0110
0000
0011
0000
0100
0010
1000
0000
,  // measure 41
1000
0100
0010
0000
0010
0001
0100
0010
,  // measure 42
1000
0010
1000
0000
0100
1000
0100
0000
,  // measure 43
1000
0001
0010
0000
1001
0000
1010
0000
,  // measure 44
1100
0000
1100
0000
1000
0010
0100
0000
,  // measure 45
0001
0010
0100
0000
1000
0100
0010
0000
,  // measure 46
0001
0100
0010
0000
1000
0010
0100
0010
,  // measure 47
1000
0010
0100
0010
1010
0000
1001
0000
,  // measure 48
0010
1000
0010
0000
1000
0100
1000
0000
,  // measure 49
0010
0100
0010
0000
0100
0010
0100
0010
,  // measure 50
0001
0010
0100
0000
0001
1000
0001
0000
,  // measure 51
0020
0000
0031
0000
1000
0100
0000
1010
,  // measure 52
0000
1100
0000
0010
0100
0000
1001
0000
,  // measure 53
0020
0000
0130
0000
0010
0010
0000
0101
,  // measure 54
0000
1001
0000
0010
1000
0000
0101
0000
,  // measure 55
2000
0000
3001
0000
1000
0100
0000
1001
,  // measure 56
0000
0110
0000
0001
0100
0000
1001
0000
,  // measure 57
0002
0000
0103
0000
0001
0001
0000
1010
,  // measure 58
0000
1100
0000
0010
0100
0000
0010
0000
,  // measure 59
1001
0000
1000
0010
0100
0000
0001
0000
,  // measure 60
1000
1000
0010
0001
,  // measure 61
0010
0000
1000
0100
1000
0000
0001
0000
,  // measure 62
0010
1000
0010
0000
0001
0100
0001
0000
,  // measure 63
0100
0000
0010
0100
0010
0000
1000
0000
,  // measure 64
0001
0100
0010
1000
,  // measure 65
0001
0000
0100
0010
1000
0000
0100
0000
,  // measure 66
0010
0001
1000
0100
0010
0001
1000
0000
,  // measure 67
2000
0100
0010
3001
,  // measure 68
1000
0100
0000
0010
0000
0001
0000
1000
,  // measure 69
0100
0010
0100
0000
1000
0010
1000
0000
,  // measure 70
0010
0100
0010
0000
0100
0001
0010
0000
,  // measure 71
0002
1000
0100
0013
,  // measure 72
1000
0100
0000
0010
0000
0001
0000
1000
,  // measure 73
0100
0010
0001
0000
0100
0010
1000
0000
,  // measure 74
1010
0000
0000
1100
0000
0000
0011
0000
0000
0000
0110
0000
1001
0000
0000
0000
;
