#TITLE:Just Dance;
#SUBTITLE:(Naw-T & Rubs Remix);
#ARTIST:Lady GaGa;
#TITLETRANSLIT:;
#SUBTITLETRANSLIT:;
#ARTISTTRANSLIT:;
#CREDIT:;
#BANNER:Just Dance (Naw-T & Rubs Remix)-bn.JPG;
#BACKGROUND:Just Dance (Naw-T & Rubs Remix)-bg.JPG;
#LYRICSPATH:;
#CDTITLE:cd.png;
#MUSIC:Just Dance (Naw-T & Rubs Remix).mp3;
#OFFSET:-5.685;
#SAMPLESTART:27.870;
#SAMPLELENGTH:12.000;
#SELECTABLE:YES;
#BPMS:0.000=170.020,89.000=85.010,105.000=170.020;
#STOPS:64.000=0.353
,65.500=0.353
,70.000=0.353
,71.500=0.353
,76.000=0.353
,77.500=0.353
,82.000=0.353
,83.500=0.353
,88.000=1.059
,105.000=0.706
;
#BGCHANGES:;

//---------------dance-single - ----------------
#NOTES:
     dance-single:
     :
     Hard:
     9:
     0.608,0.942,0.315,0.172,0.335:
1000
0100
0010
0001
0100
0010
1000
0100
,
0010
0000
1000
0100
0010
0000
1001
0000
,
0100
0010
0002
0013
0100
0010
1000
0100
,
0010
0000
0100
0010
0100
0000
0011
0000
,
1000
1000
0100
0100
0010
0010
0001
0001
,
1000
0001
1000
0001
0010
0001
0010
0000
,
1000
0100
0010
0001
0100
0010
0100
0010
,
1000
0000
0100
0010
0100
0000
1010
0000
,
1001
0002
1003
2001
,
3010
0000
2001
0000
3100
0000
0010
1000
,
0001
0000
0100
1000
0010
0100
0010
0001
,
0100
0010
0001
1000
0010
0100
0001
0010
,
1000
2002
3003
0011
,
1000
0000
0100
0010
0001
0000
0100
0000
,
0110
0000
1000
0100
0010
0001
0100
0010
,
1000
0100
0010
0001
0100
0000
0010
0000
,
1001
0001
0000
0001
1001
0000
0000
1000
,
0000
0010
0000
0000
1001
0001
0000
0001
,
1001
0000
0000
1000
0000
0100
0000
0000
,
1010
0100
0000
0100
1001
0000
0000
0010
,
0000
0010
0000
0000
0110
1000
0000
1000
,
0011
0000
0001
0000
0001
0001
0001
0000
,
1001
0000
0000
0000
0000
0000
0000
0000
0100
0000
0000
0100
0000
0000
0100
0000
0000
1000
0000
0000
0100
0000
0001
0000
0010
0000
0000
0100
0000
0000
0100
0000
,
0000
1000
0000
0000
0100
0000
0010
0000
0001
0000
0000
0100
0000
0000
0100
0000
0000
0001
0000
0000
1000
0000
0001
0000
0100
0000
0000
0100
0000
0000
0100
0000
,
1000
0000
0000
0010
0000
0000
0001
0000
0010
0000
1000
0010
0000
1000
0010
0000
0000
0100
0000
0000
1000
0000
0100
0000
0010
0000
0001
1000
0000
0001
1000
0000
,
0000
0010
0000
0000
0100
0000
0001
0000
1000
0000
0100
1000
0000
0100
1000
0000
0000
0010
0000
0000
0100
0000
1000
0000
0001
0000
0010
0001
0000
0010
0001
0000
,
1000
0000
0010
0100
0000
0010
1000
0000
2002
0000
0000
0000
0000
0000
0000
0000
3003
0000
0000
0000
0000
0000
0000
0000
0001
0000
0000
0000
1000
0000
0100
0000
,
0000
0100
1000
0000
0100
0010
0000
1000
0001
0000
1000
0000
0010
0000
1000
0010
,
0000
0010
1000
0000
0100
1000
0000
0100
1000
0000
0100
0000
0001
0000
0100
1000
,
0000
1000
0100
0000
1000
0010
0000
0010
1000
0000
0100
0000
0010
0000
0000
1000
,
0000
0000
0010
0000
0100
0000
0000
0100
0000
0000
1000
0000
1000
0000
0010
0001
,
0000
0001
0010
0000
0001
0100
0000
0010
1000
0000
0010
0000
0100
0000
0010
0100
,
0000
0100
0010
0000
0001
0010
0000
0001
0010
0000
0001
0000
1000
0000
0001
0010
,
0000
0010
0001
0000
0010
0100
0000
0100
0010
0000
0001
0000
0100
0000
0000
0010
,
0000
0000
0100
0000
0001
0000
0000
0001
0000
0000
0010
0000
0002
0000
0000
0000
,
1003
0000
0100
1000
0010
0000
0010
0100
,
0001
0100
1000
0001
0010
0000
0101
0000
,
0100
1000
0010
0100
0010
0000
0010
1000
,
0100
1000
0001
0010
0100
0000
0101
0000
,
0001
0100
1000
0010
0100
0000
0100
1000
,
0001
0010
0100
0010
0100
0000
2001
0000
,
3100
0201
0310
0001
,
0100
0000
1000
1000
1000
0000
2001
0000
,
0010
0000
3100
0000
0001
0100
1000
0000
,
0001
0000
0001
0010
0100
0001
2000
0000
,
3010
0001
0010
0000
0100
0000
1002
0000
,
0100
0000
1003
0010
1000
0010
1000
0000
,
1001
0000
1100
0000
1001
0000
0001
0010
,
0100
0001
0100
1000
0001
0000
0101
0000
,
1001
0000
0011
0000
1001
0000
0001
0010
,
0100
0001
0100
1000
0001
0000
0010
1000
,
0100
1000
0010
1000
0100
0000
0001
0100
,
0001
0010
0001
0100
0001
0000
0010
1000
,
0010
0100
0010
1000
0010
0000
0001
1000
,
0010
1000
0001
0100
0001
0000
2000
0000
,
0010
0000
3001
0000
0100
0010
0100
0000
,
0001
0000
0100
1000
0100
1000
0010
0000
,
0100
0000
0001
0100
1000
0000
0002
0000
,
0000
0000
0003
2002
,
0000
0000
0000
3003
;

//---------------dance-single - ----------------
#NOTES:
     dance-single:
     :
     Medium:
     7:
     0.464,0.428,0.277,0.191,0.076:
1000
0010
1000
0000
0001
0100
0001
0000
,
1001
1100
1001
0101
,
0001
0010
0100
0000
0001
0100
1000
0001
,
0010
0000
0100
0001
0200
0000
0310
0000
,
0001
0100
1000
0000
0001
0010
0100
0000
,
0001
0010
1000
0100
1000
0010
0100
0000
,
0001
0000
0100
0000
1000
0010
1000
0000
,
0200
1000
1000
1300
,
0001
1001
0000
1100
,
1001
0000
0010
0000
0100
0000
0001
0100
,
0001
0000
0010
0000
1000
0100
1000
0000
,
0010
0100
0010
0000
0001
0100
0001
0000
,
0002
1003
1001
0010
,
0100
0000
0001
0100
1000
0000
0010
0000
,
0100
0000
0001
0100
0001
0000
0010
1000
,
0010
0100
1000
0001
,
1001
0001
0000
0001
1001
0000
0000
0001
,
0000
0100
0000
0000
1100
0010
0000
0010
,
0100
0000
0000
1000
0000
1000
0000
0000
,
0001
1000
0000
0010
1000
0000
0000
0100
,
0000
1000
0000
0000
0010
1000
0000
0001
,
1000
0000
0010
0000
1000
1000
1000
0000
,
1001
0000
1000
0001
0100
0001
0100
0000
,
1000
0000
0010
0100
0001
0100
1000
0000
,
0010
0000
1000
0001
0010
0100
0001
0000
,
1000
0000
0010
0100
0001
0100
1000
0001
,
0010
0000
0100
0000
1001
0000
0000
0000
0000
0000
0000
0000
0100
0000
0000
0010
,
0000
0000
1000
0000
0000
0100
0000
0000
0010
0000
0001
0000
0010
0000
0000
0010
,
0000
0000
0010
0000
0000
0010
0000
0000
0100
0000
0001
0000
1000
0000
0000
0010
,
0000
0000
0100
0000
0000
1000
0000
0000
0100
0000
0010
0000
0001
0000
0000
0001
,
0000
0000
0001
0000
0100
0000
0000
0010
0000
0000
0100
0000
0010
0000
0000
0001
,
0000
0000
0100
0000
0000
0010
0000
0000
0001
0000
1000
0000
0001
0000
0000
0001
,
0000
0000
0001
0000
0000
0001
0000
0000
0010
0000
1000
0000
0100
0000
0000
0001
,
0000
0000
0010
0000
0000
0100
0000
0000
0010
0000
0001
0000
1000
0000
0000
1000
,
0000
0000
1000
0000
0010
0000
0000
0001
0000
0000
0010
0000
0002
0000
0000
0000
,
1000
0000
0013
0100
0010
0000
0001
0100
,
1000
0000
0001
0010
0100
0000
0201
0000
,
0010
0000
0301
0100
1000
0000
0001
0010
,
0100
0000
0001
0100
1000
0000
2100
0000
,
0010
0000
3100
0001
0010
0000
0100
0000
,
0001
0000
0010
1000
0010
0000
1001
0000
,
0100
1001
0100
1001
,
0010
0000
0100
0100
0100
0000
0002
0000
,
1000
1000
1003
0020
,
0100
0130
1001
2100
,
0100
0100
3100
0101
,
0101
0001
0001
1010
,
0100
1000
0001
0110
,
1001
1100
0002
0103
,
0010
0100
0010
0000
0001
0000
0100
1000
,
0100
0000
0010
0100
0010
0000
0002
0100
,
0000
0100
0000
0100
0003
1000
0010
1000
,
0000
0100
0000
0100
0000
0100
2000
0010
,
0000
0010
0000
0010
3000
0100
0001
0100
,
0000
0001
0000
0001
0000
0010
2002
0000
,
0003
0001
0000
0000
0001
0000
3020
0000
,
0000
0100
0000
0100
0030
0000
2002
0000
,
0003
0100
0000
0100
3000
0000
2002
0000
,
0000
0000
0003
3020
,
0000
0000
0000
0030
;

//---------------dance-single - ----------------
#NOTES:
     dance-single:
     :
     Easy:
     5:
     0.389,0.367,0.335,0.172,0.000: // measure 1
0010
0100
0001
0100
,  // measure 2
1001
0010
0100
0001
,  // measure 3
0001
0010
0100
0100
,  // measure 4
1010
0000
0010
1000
0010
0000
0001
0000
,  // measure 5
0101
1000
0001
0100
,  // measure 6
0001
0010
0001
0010
,  // measure 7
0100
0001
0010
1000
,  // measure 8
1100
0001
0010
0100
,  // measure 9
0001
0002
0000
2003
,  // measure 10
0000
3010
0100
0001
,  // measure 11
0100
1001
0100
1000
,  // measure 12
0010
0100
0001
0100
,  // measure 13
1000
2020
3030
0002
,  // measure 14
0003
0100
0010
1000
,  // measure 15
0001
0201
1300
0001
,  // measure 16
0010
1000
0001
0010
,  // measure 17
1001
0000
0002
1003
,  // measure 18
0010
0000
1001
0100
,  // measure 19
0010
0000
1000
0001
,  // measure 20
1000
0100
1000
0000
,  // measure 21
0010
0100
0101
0101
,  // measure 22
0101
0010
0010
0010
,  // measure 23
1001
1000
0010
0100
,  // measure 24
0001
0100
0020
0030
0020
0030
1000
0000
,  // measure 25
1000
1000
1001
0000
0010
0000
0100
0000
,  // measure 26
0001
0010
0001
0000
0100
0000
0010
0010
,  // measure 27
0010
0010
1001
0000
0000
0000
0010
0000
,  // measure 28
0100
0101
0010
1000
,  // measure 29
0100
1001
0010
0100
,  // measure 30
0001
0011
0001
0100
,  // measure 31
1000
1001
0010
0200
,  // measure 32
0001
0301
0010
1001
,  // measure 33
0100
0100
0010
0201
,  // measure 34
0010
0001
0310
1001
,  // measure 35
0100
0000
1000
0010
1000
0000
0001
0000
,  // measure 36
0101
0000
1000
0010
1000
0000
0100
0000
,  // measure 37
0001
0010
0100
0201
,  // measure 38
0310
0000
0001
0100
0001
0000
0010
0000
,  // measure 39
0100
0001
0100
2010
,  // measure 40
0010
0000
3001
0010
0100
0000
0001
0000
,  // measure 41
0100
0000
0010
1000
0010
0000
0020
0000
,  // measure 42
0100
0032
0100
0013
,  // measure 43
1000
0000
0001
0001
0001
0000
1001
0000
,  // measure 44
0010
0100
0001
0100
,  // measure 45
1000
0001
0101
0101
,  // measure 46
0001
0010
0100
0100
,  // measure 47
1000
0010
0100
1001
,  // measure 48
0100
1000
0001
0010
,  // measure 49
0001
1000
0110
0110
,  // measure 50
0001
0100
1000
0001
,  // measure 51
0010
0100
0001
0001
,  // measure 52
0001
0000
0010
0000
0100
0001
0100
0000
,  // measure 53
0010
0100
1000
0010
,  // measure 54
0100
0000
0001
0000
0010
0001
0010
0000
,  // measure 55
0100
1000
0010
1001
,  // measure 56
0000
0100
0000
1001
,  // measure 57
0000
0010
0000
0101
,  // measure 58
0000
0010
0000
2000
,  // measure 59
0000
0000
3000
2002
,  // measure 60
3003
0000
0000
0000
;

//---------------dance-single - ----------------
#NOTES:
     dance-single:
     :
     Beginner:
     3:
     0.318,0.423,0.239,0.239,0.000: // measure 1
1000
1000
0001
1000
,  // measure 2
2000
0000
0000
0000
,  // measure 3
3001
0010
0001
0100
,  // measure 4
0020
0000
0000
0030
,  // measure 5
0001
1000
0010
0010
,  // measure 6
0100
0001
0010
0100
,  // measure 7
0001
0010
1000
0100
,  // measure 8
2000
0000
0000
3000
,  // measure 9
0010
1001
0000
0101
,  // measure 10
0000
1100
0000
1001
,  // measure 11
0000
0010
0010
0100
,  // measure 12
0001
1000
0001
0010
,  // measure 13
0100
0101
0000
0010
,  // measure 14
0000
0101
0000
1001
,  // measure 15
0000
0010
1000
0100
,  // measure 16
0001
0010
0100
0010
,  // measure 17
1001
0001
1001
0000
,  // measure 18
0100
0000
1010
0100
,  // measure 19
0010
0000
1001
0000
,  // measure 20
0010
0101
0100
0000
,  // measure 21
1010
0000
0200
1000
,  // measure 22
0001
1000
0001
1000
,  // measure 23
0110
2000
0000
3100
,  // measure 24
0001
0010
0002
0000
0000
0000
2003
0000
,  // measure 25
0000
3000
0220
0000
0030
0000
0302
0000
,  // measure 26
0100
1003
2000
0000
3020
0000
0130
0001
,  // measure 27
1000
0010
0220
0000
0330
0000
0001
0000
,  // measure 28
0010
0001
0000
0100
,  // measure 29
1000
0010
0000
0100
,  // measure 30
0001
0010
0000
0100
,  // measure 31
0010
0100
0001
0101
,  // measure 32
0010
0100
0000
0010
,  // measure 33
1000
0100
0000
0001
,  // measure 34
0010
0100
0000
0001
,  // measure 35
1000
0010
0100
1001
,  // measure 36
0010
0100
0001
0000
,  // measure 37
0100
0010
0100
0101
,  // measure 38
0010
0100
1000
0000
,  // measure 39
0010
0010
0010
0010
,  // measure 40
0100
1000
0001
0000
,  // measure 41
1000
0010
0100
0101
,  // measure 42
0000
0101
0000
1001
,  // measure 43
0010
0010
0010
1001
,  // measure 44
0010
0100
0001
0010
,  // measure 45
0100
0001
0002
0103
,  // measure 46
0010
0100
1000
0010
,  // measure 47
0100
0001
0010
0200
,  // measure 48
0310
0001
1000
0100
,  // measure 49
1000
0010
0010
0200
,  // measure 50
0301
0010
0100
0001
,  // measure 51
1000
0001
0010
2002
,  // measure 52
0000
0003
0000
3001
,  // measure 53
0001
0001
0001
0002
,  // measure 54
0000
0000
0000
1003
,  // measure 55
1000
1000
1000
2000
,  // measure 56
0000
0000
0000
3020
,  // measure 57
0000
0000
0000
0230
,  // measure 58
0000
0000
0000
0302
,  // measure 59
0000
0000
0003
2002
,  // measure 60
3003
0000
0000
0000
;
