#TITLE:Jam Jam Jam;
#SUBTITLE:;
#ARTIST:Kiki & Kika;
#TITLETRANSLIT:;
#SUBTITLETRANSLIT:;
#ARTISTTRANSLIT:;
#CREDIT:;
#BANNER:Jam Jam Jam-bn.png;
#BACKGROUND:Jam Jam Jam-bg.png;
#LYRICSPATH:;
#CDTITLE:Eurobeat Flash 17.png;
#MUSIC:Jam Jam Jam.mp3;
#OFFSET:-6.150;
#SAMPLESTART:42.555;
#SAMPLELENGTH:12.000;
#SELECTABLE:YES;
#BPMS:0.000=158.100;
#STOPS:;
#BGCHANGES:;

//---------------dance-single - ----------------
#NOTES:
     dance-single:
     :
     Hard:
     8:
     0.641,0.539,0.328,0.178,0.216:
0010
0000
0000
1000
0100
0000
1000
0000
0010
0000
0000
0100
0010
0000
0100
0000
,
0001
0000
0000
1000
0001
0000
0100
0000
0010
0000
0100
0000
0001
0000
0010
0000
,
0100
0000
0000
1000
0010
0000
1000
0000
0001
0000
0000
0100
0001
0000
1000
0000
,
0001
0000
0000
1000
0010
0000
0100
0000
0010
0000
0100
0000
0010
0000
1000
0000
,
0001
0000
0000
1000
0010
0000
1000
0000
0001
0000
0000
0010
0100
0000
1000
0000
,
0100
0000
0000
1000
0010
0000
0100
0000
0001
0000
1000
0000
0010
0000
0100
0000
,
0001
0000
0000
0100
0010
0000
1000
0000
0100
0000
0000
0010
0100
0000
1000
0000
,
0100
0000
0000
1000
0001
0000
0100
0000
0010
0000
1000
0000
0001
0000
0100
0000
,
0001
0000
0000
0001
0000
0000
0001
0000
0000
0000
1001
0000
0000
0000
1000
0000
,
1000
0000
0001
0000
0001
0000
1000
0000
0001
0000
0000
1001
0000
0000
1000
0000
,
0010
0100
0010
0100
0001
0010
0000
1200
,
0000
0310
0010
0100
1000
0000
1001
0000
,
0010
0000
0000
0010
0000
0000
0020
0000
0000
0000
0130
0000
0000
0000
1001
0000
,
0000
0000
0100
0000
0010
0000
0100
0000
0001
0000
0000
1000
0000
0000
0100
0000
,
1000
0010
0100
0010
0100
0001
0010
0200
,
0000
1300
0001
0100
0000
0010
1000
0100
,
2000
0000
3001
0200
0000
0320
0000
2030
,
0000
3000
0001
0001
0000
0001
0100
0001
,
0100
0020
0000
0230
0000
0301
0000
0101
,
0000
1100
0000
0110
0000
1001
0000
0001
,
2000
0000
3001
0100
0000
0010
0000
0010
,
0000
1001
0000
1000
0001
0100
0001
0000
,
0010
0000
0100
1000
0000
0010
0000
2002
,
0000
3003
0000
1001
0000
1001
0000
0000
,
1001
0000
0110
0000
1002
0000
1003
1000
,
0001
1000
0001
1000
0010
0010
0100
0001
,
0000
1000
0001
0010
0100
1000
0100
0010
,
0000
0001
0000
1100
0000
0011
0000
1000
,
1001
0000
0110
0000
1001
0000
0001
0010
,
0100
1000
0010
0100
0010
0100
0001
0001
,
0000
0100
0010
0100
0001
1000
0100
1000
,
0020
0130
0011
1100
,
1001
0000
0110
0000
1001
0000
0001
0100
,
0010
0100
0001
0010
0100
0100
1000
0010
,
0000
0010
0100
0001
1000
0010
0100
0010
,
0000
0010
0000
1001
0000
1001
0000
0010
,
0100
0000
1001
0000
1100
0000
0010
0100
,
0001
0010
0001
0100
0010
0010
1000
0010
,
0000
0100
0001
0100
0001
0010
0100
0000
,
1001
0110
2002
3003
,
0100
0000
0000
0001
0010
0000
0001
0000
0100
0000
0000
0010
0100
0000
0010
0000
,
1000
0000
0000
0001
1000
0000
0010
0000
0100
0000
0010
0000
1000
0000
0100
0000
,
0010
0000
0000
0001
0100
0000
0001
0000
1000
0000
0000
0010
1000
0000
0001
0000
,
1000
0000
0000
0001
0100
0000
0010
0000
0100
0000
0010
0000
0100
0000
0001
0000
,
1000
0000
0000
0001
0100
0000
0001
0000
1000
0000
0000
0100
0010
0000
0001
0000
,
0010
0000
0000
0001
0100
0000
0010
0000
1000
0000
0001
0000
0100
0000
0010
0000
,
1000
0000
0000
0010
0100
0000
0001
0000
0010
0000
0000
0100
0010
0000
0001
0000
,
0010
0000
0000
0001
1000
0000
0010
0000
0100
0000
0001
0000
1000
0000
0010
0000
,
2000
0001
0010
3100
,
0001
1000
0010
0100
0001
0000
0100
0010
,
0100
0001
0100
0010
1000
0001
0100
0010
,
1000
0000
0001
0000
0100
0000
0001
0000
0010
0000
0100
0000
1000
0000
0000
1000
,
0010
0000
0000
0010
0100
0000
0000
0100
0001
0000
0000
0001
1000
0000
0000
0000
,
0001
0100
0010
0100
0001
1000
0010
0100
,
0001
0000
0000
0001
0000
0000
0100
0000
0000
0100
0000
0000
0010
0000
0010
0000
,
0010
1000
0100
1000
2002
0000
3003
0000
,
1001
0000
0000
1000
0010
0000
0100
0000
0001
0000
0000
0100
0010
0000
1000
0000
,
0001
0000
0000
0010
0100
0000
0010
0000
0001
0000
1000
0000
0010
0000
0100
0000
,
0001
0000
0000
1000
0001
0000
1000
0000
0010
0000
0000
1000
0001
0000
1000
0000
,
0001
0000
0000
0010
0001
0000
1000
0000
0001
0000
1000
0000
0010
0000
0100
0000
,
0001
0000
0000
1000
0001
0000
0100
0000
0010
0000
0000
0100
0001
0000
1000
0000
,
0010
0000
0000
0100
0010
0000
1000
0000
0100
0000
0010
0000
0001
0000
1000
0000
,
0010
0000
0000
0100
0010
0000
0100
0000
0010
0000
0000
1000
0001
0000
1000
0000
,
0001
0000
0000
0100
0001
0000
1000
0000
0001
0000
0100
0000
0010
0000
1000
0000
;

//---------------dance-single - ----------------
#NOTES:
     dance-single:
     :
     Medium:
     6:
     0.465,0.419,0.103,0.272,0.000: // measure 1
1000
0000
0001
1000
0001
0000
1000
0010
,  // measure 2
1000
0000
0001
1000
0002
0000
1003
0000
,  // measure 3
0001
0000
1000
0010
1000
0000
0001
1000
,  // measure 4
0001
0000
1000
0010
2000
0000
3010
0000
,  // measure 5
0100
0000
0001
1000
0001
0000
0010
0100
,  // measure 6
0010
0000
0001
0010
0002
0000
0013
0000
,  // measure 7
0100
0000
0010
0001
0010
0000
0001
0010
,  // measure 8
0001
0000
0010
0001
2000
0000
3010
0000
,  // measure 9
1000
0001
1000
0001
,  // measure 10
1000
0010
1000
0000
0001
0100
0001
0000
,  // measure 11
0100
0010
1000
0001
,  // measure 12
1000
1000
0001
0001
,  // measure 13
1000
0010
0100
0001
,  // measure 14
1000
0010
1000
0000
0001
0100
0001
0000
,  // measure 15
0200
0320
2030
3001
,  // measure 16
2000
0000
0001
3001
,  // measure 17
0002
1000
1000
1003
,  // measure 18
0200
0010
0010
0310
,  // measure 19
0010
0100
0010
0000
1000
0001
1000
0000
,  // measure 20
0001
1000
0010
1001
,  // measure 21
0002
1000
0100
1003
,  // measure 22
2000
0001
0010
3001
,  // measure 23
1000
0010
0100
0001
,  // measure 24
1000
0000
0000
0001
0000
1000
0000
0000
,  // measure 25
0001
0000
1000
0000
0001
0000
1000
0010
,  // measure 26
1000
0000
0001
0100
0001
0000
1000
0000
,  // measure 27
0010
0100
0001
1000
,  // measure 28
1001
0110
1001
0110
,  // measure 29
0001
0000
1000
0000
0001
0000
1000
0010
,  // measure 30
1000
0000
0001
0100
0010
0000
1000
0000
,  // measure 31
0001
0010
0100
1000
,  // measure 32
0020
0230
0302
2003
,  // measure 33
3001
0000
1000
0000
0001
0000
1000
0100
,  // measure 34
1000
0000
0001
0010
0001
0000
1000
0000
,  // measure 35
0001
0100
0001
1000
,  // measure 36
1001
0110
1001
0110
,  // measure 37
1000
0000
0001
0000
1000
0000
0001
0100
,  // measure 38
0001
0000
1000
0010
0100
0000
0001
0000
,  // measure 39
1000
0100
0010
0001
,  // measure 40
0200
0320
2030
3000
,  // measure 41
0001
0000
1000
0001
1000
0000
0001
0100
,  // measure 42
0001
0000
1000
0001
2000
0000
3001
0000
,  // measure 43
1000
0000
0001
0100
0001
0000
1000
0001
,  // measure 44
1000
0000
0001
0100
0002
0000
0103
0000
,  // measure 45
0010
0000
1000
0001
1000
0000
0100
0010
,  // measure 46
0100
0000
1000
0100
2000
0000
3100
0000
,  // measure 47
0010
0000
0100
1000
0100
0000
1000
0100
,  // measure 48
1000
0000
0100
1000
0002
0000
0103
0000
,  // measure 49
1001
0010
1000
0010
,  // measure 50
0100
0010
0100
0000
0001
0000
1000
0000
,  // measure 51
0001
1000
0001
1000
0001
1000
0001
0000
,  // measure 52
1000
0001
1000
0010
,  // measure 53
0100
0100
0010
0010
,  // measure 54
1000
1000
0001
0001
,  // measure 55
1000
0001
1000
0001
,  // measure 56
1000
0001
1000
0000
2002
0000
3003
0000
,  // measure 57
1000
0000
0001
0100
0001
0000
1000
0010
,  // measure 58
1000
0000
0001
0100
0020
0000
1030
0000
,  // measure 59
0001
0000
1000
0010
1000
0000
0010
0100
,  // measure 60
0010
0000
0100
0001
2000
0000
3001
0000
,  // measure 61
0010
0000
0100
0010
0100
0000
0010
0001
,  // measure 62
0010
0000
0100
0010
0200
0000
1300
0000
,  // measure 63
0001
0000
1000
0001
1000
0000
0001
1000
,  // measure 64
0001
0000
1000
0010
0200
0000
0301
0000
;

//---------------dance-single - ----------------
#NOTES:
     dance-single:
     :
     Easy:
     3:
     0.248,0.299,0.103,0.150,0.000: // measure 1
1000
0000
0001
0000
,  // measure 2
1000
0000
0001
1000
,  // measure 3
0010
0000
0100
0000
,  // measure 4
0010
0000
0100
0010
,  // measure 5
1000
0000
0001
0000
,  // measure 6
1000
0000
0001
1000
,  // measure 7
0100
0000
0010
0000
,  // measure 8
0100
0000
0010
0001
,  // measure 9
2000
3000
0002
0003
,  // measure 10
1000
0001
1000
0000
,  // measure 11
0010
0000
1000
0000
,  // measure 12
0001
0001
0001
0000
,  // measure 13
1000
0000
0010
0000
,  // measure 14
0100
0100
0100
0000
,  // measure 15
0010
0000
0100
0000
,  // measure 16
0001
1000
0001
0000
,  // measure 17
2000
0000
0000
3000
,  // measure 18
0002
0000
0000
0003
,  // measure 19
1000
0000
0001
0000
,  // measure 20
1000
0010
0100
0001
,  // measure 21
2000
0000
0000
3000
,  // measure 22
0002
0000
0000
0003
,  // measure 23
0200
0000
0000
0300
,  // measure 24
0020
0000
0000
0030
,  // measure 25
0010
0010
0010
0000
,  // measure 26
1010
1010
1010
0000
,  // measure 27
0001
0000
1000
0000
,  // measure 28
0001
1000
0010
0100
,  // measure 29
0001
0001
0001
0000
,  // measure 30
1100
1100
1100
0000
,  // measure 31
0001
0000
1000
0000
,  // measure 32
0010
0100
0010
0100
,  // measure 33
1001
0000
1001
0000
,  // measure 34
0100
0100
0100
0000
,  // measure 35
0010
0000
0100
0000
,  // measure 36
0010
0100
0010
0100
,  // measure 37
0110
0000
0110
0000
,  // measure 38
0001
1000
0001
0000
,  // measure 39
1000
0000
0001
0000
,  // measure 40
1000
0001
1001
0000
,  // measure 41
0001
0000
1000
0000
,  // measure 42
0001
0000
1000
0001
,  // measure 43
0100
0000
0010
0000
,  // measure 44
0100
0000
0010
0100
,  // measure 45
0001
0000
1000
0000
,  // measure 46
0001
0000
1000
0001
,  // measure 47
0010
0000
0100
0000
,  // measure 48
0010
0000
0100
1000
,  // measure 49
0002
0000
2003
0000
,  // measure 50
3020
0000
0230
0000
,  // measure 51
0310
0010
0100
0100
,  // measure 52
0010
0100
0010
0100
,  // measure 53
0002
0000
2003
0000
,  // measure 54
3002
0000
2003
0000
,  // measure 55
3010
0000
0100
0000
,  // measure 56
0010
0100
0010
0000
,  // measure 57
1000
0000
0001
0000
,  // measure 58
1000
0000
0010
0100
,  // measure 59
0001
0000
1000
0000
,  // measure 60
0001
0000
1000
0001
,  // measure 61
0010
0000
0100
0000
,  // measure 62
0010
0000
0001
0100
,  // measure 63
0010
0000
0100
0000
,  // measure 64
0010
0000
1000
0001
;
