#TITLE:If The Rain Falls;
#SUBTITLE:(Red Monster Hyper Mix);
#ARTIST:Right On Time;
#TITLETRANSLIT:;
#SUBTITLETRANSLIT:;
#ARTISTTRANSLIT:;
#CREDIT:;
#BANNER:If the Rain Falls (Red Monster Hyper Mix)-bn.PNG;
#BACKGROUND:If the Rain Falls (Red Monster Hyper Mix)-bg.PNG;
#LYRICSPATH:;
#CDTITLE:Dance Mania Delux 4.png;
#MUSIC:If the Rain Falls (Red Monster Hyper Mix).mp3;
#OFFSET:-6.025;
#SAMPLESTART:77.530;
#SAMPLELENGTH:12.000;
#SELECTABLE:YES;
#BPMS:0.000=160.030,32.000=80.020,48.000=160.030;
#STOPS:;
#BGCHANGES:;

//---------------dance-single - ----------------
#NOTES:
     dance-single:
     :
     Hard:
     8:
     0.634,0.638,0.262,0.272,0.005: // measure 1
2001
0000
3001
0000
1000
0001
1000
0000
,  // measure 2
0001
0100
0010
0000
1000
0001
0100
0000
,  // measure 3
1002
0000
1003
0000
1000
0001
1001
0000
,  // measure 4
0100
0010
0101
0000
0010
1000
1010
0000
,  // measure 5
0102
0000
1003
0000
0001
1000
0001
0000
,  // measure 6
1000
0010
0100
0000
0001
1000
0010
0000
,  // measure 7
2010
0000
3001
0000
0001
1000
1001
0000
,  // measure 8
0010
0100
1010
0000
0010
1000
0010
1000
,  // measure 9
0002
1000
2003
0001
3020
1030
0000
1000
,  // measure 10
0002
0000
0000
0000
2003
0000
0000
0000
3001
0000
0001
0000
1000
0000
0010
0100
,  // measure 11
0020
0100
0230
0001
0302
1000
1003
0010
,  // measure 12
2001
0000
3010
0000
0110
0001
1001
0100
,  // measure 13
1000
0010
2000
0000
3001
0100
0002
0000
,  // measure 14
0103
0010
0200
0000
0310
0010
2000
0000
,  // measure 15
3001
1000
0001
1000
0001
1000
0001
1000
,  // measure 16
0010
0100
0010
0100
0010
0100
0010
0000
,  // measure 17
1000
0010
1000
0010
1000
0100
1000
0100
,  // measure 18
1000
0001
1000
0001
0010
0001
0010
0001
,  // measure 19
0100
0010
0100
0001
0100
0010
0100
0001
,  // measure 20
0100
0010
1000
0100
0010
0001
0100
0010
,  // measure 21
1000
0001
1000
0001
1000
0100
1000
0100
,  // measure 22
1000
0001
1000
0001
0100
0001
0100
0001
,  // measure 23
0100
0010
1000
0001
0100
0010
1000
0001
,  // measure 24
0100
0010
1000
0001
0010
0100
1000
0010
,  // measure 25
0100
0100
0100
0000
0010
1000
1010
0000
,  // measure 26
0010
0010
0010
0000
0010
0100
0101
0000
,  // measure 27
0001
1000
1001
0000
0100
0010
0110
0000
,  // measure 28
2000
3002
2003
3200
,  // measure 29
1300
0010
1000
0000
0010
0100
0010
0000
,  // measure 30
0100
0001
0100
0000
0010
0100
0010
0000
,  // measure 31
1000
0100
0010
0001
1000
0100
0010
0100
,  // measure 32
1000
0001
0100
0010
1000
0001
1000
0100
,  // measure 33
0010
0001
0101
0000
1000
0100
1100
0000
,  // measure 34
0010
0100
0110
0000
0001
1000
1001
0000
,  // measure 35
0001
0010
0001
0100
0001
0010
0001
0100
,  // measure 36
0010
1000
0100
1000
0001
0100
0010
0000
,  // measure 37
0200
0000
0310
0000
0100
0010
0110
0000
,  // measure 38
0002
0000
1003
0000
0001
1000
1001
0000
,  // measure 39
0200
0000
0301
0000
0100
0001
0101
0000
,  // measure 40
0020
0000
1030
0000
0010
1000
1010
0000
,  // measure 41
1000
0010
1000
0010
0100
0001
0101
0000
,  // measure 42
0001
0100
0010
1000
0100
0010
1001
0000
,  // measure 43
0001
0010
0100
1000
0001
0100
0010
1000
,  // measure 44
0001
0100
0010
0000
0010
0100
0001
1000
,  // measure 45
2001
0010
0001
3010
,  // measure 46
0100
0001
0100
0000
0010
0100
0001
1000
,  // measure 47
0020
0100
1000
0130
,  // measure 48
0100
0010
0100
0001
1000
0100
0010
0001
,  // measure 49
0020
0001
0100
0031
,  // measure 50
0001
1000
0010
0100
0001
1000
0100
0000
,  // measure 51
0100
1000
0001
0100
0010
1000
0001
1000
,  // measure 52
0100
0010
0001
1000
0010
0100
0001
0000
,  // measure 53
0010
1000
0010
0100
0001
0100
0010
1000
,  // measure 54
0001
0100
0010
1000
0001
0010
0100
1000
,  // measure 55
0001
1000
0001
0100
0010
1000
0001
1000
,  // measure 56
0001
0100
0001
0010
0100
1000
0001
0100
,  // measure 57
0010
1000
0001
0100
0010
1000
0001
0100
,  // measure 58
0001
0010
0100
1000
0001
0010
0100
1000
,  // measure 59
0001
0100
0010
1000
0001
0100
0010
1000
,  // measure 60
0001
0010
0100
0100
1000
0010
0100
0000
;

//---------------dance-single - ----------------
#NOTES:
     dance-single:
     :
     Medium:
     5:
     0.503,0.493,0.378,0.485,0.000:
2000
3001
0002
1003
,
0020
0130
0200
0310
,
0020
0130
0200
0301
,
0002
1003
2000
3010
,
1010
0101
0020
0130
,
0200
0310
0020
1030
,
0200
1300
0002
0103
,
0110
1001
0110
0200
,
0302
2003
3020
0030
,
1001
0000
0000
0000
0110
0000
0000
0010
,
0110
0000
1001
0000
,
1001
0000
0110
0000
1001
0011
1100
1001
,
0002
2003
3020
0230
,
0302
0203
0320
2030
,
3001
1001
1000
1001
,
1000
0010
1000
0010
0100
0001
0100
0001
,
1000
0010
1000
0000
0100
0000
0010
0000
,
0100
0001
0100
0000
0100
0000
0010
0000
,
0001
1000
0001
0000
0010
0000
0001
0000
,
0010
1000
0010
1000
0010
0100
0001
0000
,
0001
0100
0010
0000
1000
0000
1010
0000
,
0001
0010
0100
0000
0010
0000
0110
0000
,
0001
1000
0010
0000
0100
0000
1001
0000
,
1000
0010
1000
0000
0100
0010
0100
0000
,
2000
3001
0002
1003
,
0020
0130
0200
0310
,
2000
3002
0203
0320
,
0230
0000
0010
0310
,
1000
0010
1000
0000
0010
0000
0100
0000
,
0001
0010
0100
1000
,
0010
1000
0010
0000
0100
0000
0001
0000
,
0010
0001
0010
0000
0100
0000
1000
0000
,
0010
0100
0010
0000
0100
0000
0001
0000
,
1000
0010
0110
0001
,
1000
0000
0010
0000
0100
0010
0100
0000
,
1000
0000
0001
0000
0010
0001
0010
0000
,
0002
1003
2000
3010
,
0020
0130
0200
0301
,
0001
0100
0001
0000
0010
1000
0010
0000
,
1000
0100
1000
0000
0100
1000
0010
0000
,
0020
0230
0302
2003
,
3020
0230
0302
2003
,
3010
1001
0100
1001
,
1001
1001
0110
0110
,
2000
0010
0001
0010
,
3002
0100
1000
0100
,
1003
0010
0100
0001
,
1001
0000
0110
0000
1001
0000
0001
1000
,
0020
0100
1000
0100
,
2030
0010
0100
3001
,
1010
0100
1010
0001
,
0101
0101
1010
1010
,
0010
0001
0010
0000
1000
0000
0001
0000
,
1000
0100
1000
0000
1000
0000
0001
0000
,
0100
0010
0100
0000
0001
0000
0100
0000
,
0001
0010
0001
0010
0001
1000
0100
0000
,
0100
1000
0001
0000
0010
0000
0011
0000
,
0100
0001
1000
0000
0001
0000
1001
0000
,
0100
0010
0001
0000
1000
0000
0110
0000
,
0010
1000
0010
0000
1000
0001
1000
0000
;

//---------------dance-single - ----------------
#NOTES:
     dance-single:
     :
     Easy:
     3:
     0.331,0.377,0.116,0.330,0.000:
2000
3001
0010
1000
,
0001
1000
0010
0000
,
0200
0310
0001
1000
,
0100
0010
0001
0000
,
0011
1100
0010
1000
,
0001
0100
0010
0000
,
1010
0101
0010
1000
,
0100
1000
0001
0010
,
0020
0000
0030
0000
,
0200
0000
0300
0000
,
0002
0000
0003
0000
,
1000
0010
0100
1001
,
0001
0001
0001
0000
,
1000
1000
1000
0000
,
0010
0010
0100
0100
,
0010
0100
0010
0100
,
0001
0001
0001
0001
,
1000
1000
1000
1000
,
0100
0100
0100
0100
,
0010
0100
0010
0100
,
1000
1000
1000
1000
,
0001
0001
0001
0001
,
0010
0010
0100
0100
,
1000
0001
0010
0100
,
2002
3003
0010
0000
,
2002
3003
0100
0000
,
0220
0330
2002
3003
,
0002
0000
1000
1000
,
1003
0000
0010
0000
,
1000
0000
0001
0000
,
1000
0010
0100
0001
,
1000
0010
1000
0001
,
0200
0300
0020
0030
,
0002
0003
2002
3003
,
0001
1000
0010
0100
,
0001
0010
0100
1000
,
2000
0000
3001
0100
,
0020
0000
0130
0001
,
0020
0000
0031
0100
,
0020
0000
1000
0130
,
2000
0000
0001
0010
,
3002
0000
0100
1000
,
2003
0000
3020
0000
,
0130
0001
0010
0001
,
2001
0000
3010
0000
,
0100
0100
0000
0001
,
2000
0000
3020
0000
,
0130
0001
0010
0100
,
2000
0000
3002
0000
,
0103
1001
0000
0010
,
2000
0000
3002
0000
,
1003
0001
1000
0001
,
1000
1000
1000
1000
,
0001
0001
0001
0001
,
0010
0001
0010
0001
,
1000
1000
1000
1000
,
0001
0001
1000
1000
,
0010
0010
0100
0100
,
0001
1000
0010
0100
,
0001
1000
0100
0010
;

//---------------dance-single - ----------------
#NOTES:
     dance-single:
     :
     Beginner:
     2:
     0.164,0.289,0.107,0.204,0.000:
0020
0000
0030
0000
,
0000
0000
0000
0000
,
0000
0000
0000
0000
,
0000
0000
0000
0000
,
0200
0000
0300
0000
,
0000
0000
0000
0000
,
0000
0000
0000
0000
,
0000
0000
0000
0000
,
1000
0000
0000
0000
,
0001
0000
0000
0000
,
0010
0000
0000
0000
,
0100
0010
0100
0010
,
2000
0000
0000
0000
,
0000
0000
0000
0000
,
3000
0000
0000
0000
,
0000
0000
0000
0000
,
1001
0000
0000
0000
,
0110
0000
0000
0000
,
0010
0000
0000
0000
,
0100
0100
0100
0100
,
0001
0000
0000
0000
,
1000
0000
0000
0000
,
0110
0000
0000
0000
,
1001
0000
0000
0000
,
0002
0000
0000
0000
,
0003
0000
0000
0000
,
2000
0000
0000
0000
,
3000
0000
0000
0000
,
0010
0000
0100
0000
,
0010
0000
0100
0000
,
0001
0000
1000
0000
,
0001
0000
1000
0000
,
0010
0000
1000
0000
,
0100
0000
0010
0000
,
0001
0000
1000
0000
,
0001
0000
1000
0000
,
2020
0000
3030
0000
,
0202
0000
0303
0000
,
0220
0000
0330
0000
,
2002
0000
3003
0000
,
0001
0000
1000
0000
,
0001
0000
1000
0000
,
0010
0010
0010
0000
,
0100
0010
0000
0100
,
0010
0000
1000
0000
,
0001
0000
1000
0001
,
2000
0000
3002
0000
,
0203
0000
0320
0000
,
1030
0000
0001
0000
,
1000
0001
0000
0010
,
0010
0000
0100
0000
,
1001
0000
0110
0000
,
0002
0000
0000
0000
,
2003
0000
0000
0000
,
3020
0000
0000
0000
,
0230
0000
0000
0000
,
0310
0000
0010
0010
,
0100
0000
0100
0100
,
0010
0000
0010
0010
,
0100
0000
1001
0000
;
