#TITLE:I Wanna Go;
#SUBTITLE:;
#ARTIST:Britney Spears;
#TITLETRANSLIT:;
#SUBTITLETRANSLIT:;
#ARTISTTRANSLIT:;
#CREDIT:;
#BANNER:I Wanna Go-bn.png;
#BACKGROUND:I Wanna Go-bg.png;
#LYRICSPATH:;
#CDTITLE:cd.png;
#MUSIC:I Wanna Go.mp3;
#OFFSET:-8.480;
#SAMPLESTART:57.570;
#SAMPLELENGTH:12.000;
#SELECTABLE:YES;
#BPMS:0.000=131.950;
#STOPS:106.000=0.455
;
#BGCHANGES:;

//---------------dance-single - ----------------
#NOTES:
     dance-single:
     :
     Hard:
     8:
     0.496,0.437,0.360,0.439,0.000:
2001
0000
3010
0000
0100
0001
0100
0010
,
2000
0000
0001
0000
3200
0000
0301
0100
,
1001
0000
0010
0000
0010
1000
0100
1000
,
0020
0000
0130
0000
0001
0100
0010
0100
,
0002
1003
2000
3010
,
2001
0000
3100
0000
0001
0100
1000
0001
,
0020
0000
0130
0001
0200
0000
1300
0010
,
1000
0000
2010
0000
3010
0100
0001
0100
,
0020
0000
1030
0001
0100
0000
1000
0010
,
2000
3010
0020
1030
,
2002
0000
3003
0010
2000
0000
3000
0010
,
1000
0010
1000
0010
0100
0001
0100
0001
,
2002
0000
3003
0001
0200
0000
0300
0001
,
0100
0001
0100
0010
0100
0010
0100
0010
,
0210
0000
0300
0010
0120
0000
0030
0100
,
1000
0010
1000
0100
1000
0010
1000
0100
,
2000
3001
0010
0100
,
2001
0000
0001
0000
0001
0000
3001
0100
,
0020
0000
1000
0000
1000
0000
1030
0010
,
0200
0000
0001
0000
0001
0000
0301
1000
,
0001
0000
0010
1000
0010
0000
0010
1000
,
0002
0000
0103
0000
1000
0100
0010
0100
,
0010
0000
0010
0000
0010
1000
0010
1000
,
0020
0000
1000
0000
1030
0100
1000
0200
,
0000
1300
0001
1000
0000
0010
1000
0020
,
0000
2030
3002
0203
,
0320
0000
0030
1001
,
1001
0000
0001
1000
0001
1000
0000
1010
,
0000
1010
0000
0100
1000
0000
0201
0000
,
0010
0000
0301
1000
0100
1000
0010
0100
,
0001
0010
0100
0010
0001
0100
0010
0000
,
0110
0000
0010
0100
0001
0010
0000
0011
,
0000
1100
0000
0010
1000
0000
2001
0000
,
0100
0000
3001
0100
0010
0100
0001
0010
,
0100
1000
0010
0100
0001
0010
0200
0000
,
1300
0010
2000
0000
3010
0100
0002
0000
,
0013
0001
0100
0010
0100
0001
2001
0000
,
3010
0000
0100
1000
0010
1000
0000
1001
,
0000
1001
0000
0001
0010
0000
0011
0000
,
1100
0000
0010
0100
0001
0010
0100
1000
,
0100
1000
0010
0100
0001
0010
0001
0000
,
0011
0000
0100
1000
0010
1000
0000
1010
,
0000
0101
0000
0100
0010
0000
0110
0000
,
1001
0000
0110
0001
0100
1000
0000
0001
,
0010
0100
0001
0100
1000
0010
0110
0000
,
1001
0000
0100
0010
0001
0100
0000
1001
,
0000
0110
0000
0001
0020
0000
0032
0000
,
0203
0000
1300
0010
0100
0001
0000
0110
,
0000
1001
0000
0100
1000
0001
0020
0000
,
0130
0000
0001
0100
1000
0010
0000
0110
,
0000
1001
0000
0110
1001
0000
0200
0000
,
0310
0000
0001
0010
1000
0001
0000
0001
,
0000
0100
1000
0010
0100
0001
1002
0000
,
1003
0002
0103
0020
,
1030
2000
3010
2002
,
0000
3003
0000
0000
;

//---------------dance-single - ----------------
#NOTES:
     dance-single:
     :
     Medium:
     6:
     0.412,0.437,0.483,0.185,0.000:
2000
0000
0010
0000
3010
0000
1000
0001
,
1000
0000
0100
1000
0100
0000
0020
0000
,
0230
0000
0301
0000
0001
1000
0001
0000
,
0001
0010
0001
0000
0001
0000
1000
0000
,
0100
0000
1001
0000
,
0020
0000
0130
0000
0001
1000
0100
0000
,
0100
0000
1000
0000
0001
0000
0010
0001
,
0010
0000
0100
0000
1000
0000
0010
0100
,
0010
0000
0001
0000
1000
0001
1000
0000
,
0002
0000
2000
3003
,
1001
0000
0000
0001
1000
0000
0000
0001
,
0010
0100
1000
0001
,
1001
0000
0110
0000
,
0010
0000
0100
0000
0001
0000
1000
0010
,
1000
0000
0000
0100
0001
0000
0000
0000
,
0010
0100
1000
0001
,
0110
1001
0002
1003
,
2001
0000
0010
0000
0100
0000
3100
1000
,
0010
0000
0010
0000
0010
0000
0001
1000
,
0001
0010
0100
1000
,
0001
0100
1000
0000
0001
0010
0100
0000
,
0010
0100
1001
0010
,
0010
0000
0001
0000
0001
0100
1000
0000
,
0010
0000
0001
0000
1000
0010
1000
0000
,
0100
1000
0010
0001
,
1010
0101
1010
1001
,
0220
0000
0330
1001
,
1001
0000
0010
0100
0001
0100
0001
0000
,
1000
0010
1000
1010
,
1100
0101
0110
0001
,
0011
1010
0110
1001
,
0011
0110
1001
0011
,
0101
0101
1010
1100
,
1010
0101
0110
1010
,
1100
0000
0010
1000
0010
1000
0020
0000
,
1030
0100
2000
0000
3010
0100
0020
0000
,
0130
0001
0100
0001
1000
0000
0010
0000
,
0110
0000
1001
0000
0001
0100
0001
0000
,
0010
0000
0100
0000
0010
0100
0010
0000
,
1001
0000
0001
0010
0001
0000
0001
0100
,
0001
0100
1000
0000
0010
0000
1000
0000
,
0100
0000
0100
0010
0100
0010
0000
0001
,
0000
1000
0000
0100
1000
0000
0100
0000
,
1001
0000
0010
0000
0100
0001
0000
0010
,
0000
0100
0000
1000
0000
0001
1000
0000
,
1001
0110
0011
1100
,
1010
0000
0101
0000
0010
1000
0010
1000
,
0010
0000
0010
0000
0100
0001
0010
0000
,
0100
1000
0001
0010
0100
0000
0001
0000
,
0101
1010
0110
0011
,
1100
0011
1010
1100
,
0001
1000
0001
0000
0001
0100
0001
0000
,
0010
1000
0010
1000
0010
1000
2000
0000
,
3002
0023
0230
0302
,
2003
3010
0100
2002
,
0000
3003
0000
0000
;

//---------------dance-single - ----------------
#NOTES:
     dance-single:
     :
     Easy:
     4:
     0.338,0.361,0.325,0.264,0.000: // measure 1
1000
0010
0100
1000
,  // measure 2
0002
0000
1003
0010
,  // measure 3
0100
0001
0100
0010
,  // measure 4
0020
0000
0000
0130
0000
0000
0001
0000
,  // measure 5
1000
0000
2002
3003
,  // measure 6
0010
0100
1000
0001
,  // measure 7
0001
0000
1000
0010
,  // measure 8
0100
0001
0010
0100
,  // measure 9
0001
0000
0000
1000
0000
0010
0000
1000
,  // measure 10
0000
0000
1001
0000
,  // measure 11
0020
0000
0030
0100
0010
0000
0000
0000
,  // measure 12
0001
1000
0001
1000
,  // measure 13
1001
0000
0000
0001
1000
0000
0000
0000
,  // measure 14
0010
0100
0010
0100
,  // measure 15
0011
0000
0000
0010
0001
0000
0000
0000
,  // measure 16
0100
1000
0010
0100
,  // measure 17
0002
0203
0320
1030
,  // measure 18
1001
1001
0001
0001
,  // measure 19
0001
0001
0001
1000
,  // measure 20
2000
0000
0001
0000
0001
0000
0001
3000
,  // measure 21
0001
1000
0001
1000
,  // measure 22
1001
0110
0010
0110
,  // measure 23
0010
0110
0010
1001
,  // measure 24
0100
1001
0010
1001
,  // measure 25
0100
1001
0010
0001
,  // measure 26
1001
0110
1001
0110
,  // measure 27
2002
0000
0000
3003
0000
0000
0001
0000
,  // measure 28
1000
0000
0001
0000
1000
0010
1000
0000
,  // measure 29
0100
0001
0010
1001
,  // measure 30
0010
0001
0100
2000
,  // measure 31
0001
0000
0001
0000
0001
3000
0001
0000
,  // measure 32
1001
0000
0010
0000
1000
0001
0100
0000
,  // measure 33
0010
0100
0010
0210
,  // measure 34
0310
0001
0100
1000
,  // measure 35
0001
1000
0001
0000
0001
0010
1000
0000
,  // measure 36
0001
1000
0010
0200
,  // measure 37
1300
0002
0103
2000
,  // measure 38
3001
1001
0010
0100
,  // measure 39
0010
0100
1000
1001
,  // measure 40
0002
0103
0001
0002
,  // measure 41
0103
2000
3010
0010
,  // measure 42
1001
0100
0010
1000
,  // measure 43
0002
0013
0001
0110
,  // measure 44
0100
0010
1000
0020
,  // measure 45
0130
0200
0310
1010
,  // measure 46
1010
0101
0101
0002
,  // measure 47
2003
3020
0130
0110
,  // measure 48
0010
0010
1000
2002
,  // measure 49
0000
0000
0000
0000
0000
3003
0100
0000
,  // measure 50
0100
0010
0010
1001
,  // measure 51
1001
0110
0110
0001
,  // measure 52
1000
0010
0100
0002
,  // measure 53
0000
2000
0003
0000
0000
0000
3020
0000
,  // measure 54
0000
0000
0000
0000
,  // measure 55
1030
0001
1000
1001
;

//---------------dance-single - ----------------
#NOTES:
     dance-single:
     :
     Beginner:
     2:
     0.183,0.215,0.062,0.167,0.000: // measure 1
1000
0000
0001
0000
,  // measure 2
0100
0001
0100
0000
,  // measure 3
0010
0000
0100
0000
,  // measure 4
0010
0100
0010
0000
,  // measure 5
2002
0000
3003
0000
,  // measure 6
0100
0000
1000
0000
,  // measure 7
0010
0100
1000
0000
,  // measure 8
0010
0000
0001
0000
,  // measure 9
0010
0100
0001
0000
,  // measure 10
0022
0000
0033
0000
,  // measure 11
2002
0000
0000
0000
,  // measure 12
3003
0000
0000
0000
,  // measure 13
0010
0000
0220
0000
,  // measure 14
0000
0000
0330
0000
,  // measure 15
2000
0000
0002
0000
,  // measure 16
0000
0000
3003
0000
,  // measure 17
0100
0000
0010
0010
,  // measure 18
0200
0000
0000
0000
,  // measure 19
0001
0000
0001
0000
,  // measure 20
0302
0000
0000
0000
,  // measure 21
1000
0000
1000
0000
,  // measure 22
1003
0000
0010
0000
,  // measure 23
0100
0000
0001
0000
,  // measure 24
1000
0000
0010
0000
,  // measure 25
0000
0100
0000
0010
,  // measure 26
0001
0000
1000
0000
,  // measure 27
0010
0100
0001
1001
,  // measure 28
0000
0100
0100
0100
,  // measure 29
0000
0010
0010
0010
,  // measure 30
0000
1000
0001
1000
,  // measure 31
0000
0010
0000
1001
,  // measure 32
0000
0010
0010
0010
,  // measure 33
0000
0001
0001
0001
,  // measure 34
0000
1000
1000
1000
,  // measure 35
0000
0100
0000
0002
,  // measure 36
0000
0000
0000
1000
,  // measure 37
0000
0000
0000
1003
,  // measure 38
0000
0001
1000
0001
,  // measure 39
0000
0100
0001
0100
,  // measure 40
0000
0010
1000
0010
,  // measure 41
0000
0100
0000
0001
,  // measure 42
0000
0010
0001
0010
,  // measure 43
0000
0100
1000
0100
,  // measure 44
0000
1000
0010
0001
,  // measure 45
0000
0100
0000
1001
,  // measure 46
0000
0020
0000
1030
,  // measure 47
0000
0200
0000
0301
,  // measure 48
0000
0002
0000
1003
,  // measure 49
1000
0001
0001
1000
,  // measure 50
0000
0020
0000
0130
,  // measure 51
0000
0200
0000
0310
,  // measure 52
0000
0010
0010
0001
,  // measure 53
1000
0010
1000
0001
,  // measure 54
0000
1000
0000
0002
,  // measure 55
0000
0013
0000
0000
;
