#TITLE:I Can't Stop The Loneliness;
#SUBTITLE:-Kanashimi Ga Tomaranai-;
#ARTIST:Anri;
#TITLETRANSLIT:;
#SUBTITLETRANSLIT:;
#ARTISTTRANSLIT:;
#CREDIT:;
#BANNER:I Can't Stop The Loneliness-bn.png;
#BACKGROUND:I Can't Stop The Loneliness-bg.png;
#LYRICSPATH:;
#CDTITLE:cd.png;
#MUSIC:I Can't Stop The Loneliness.mp3;
#OFFSET:-8.029;
#SAMPLESTART:16.210;
#SAMPLELENGTH:12.000;
#SELECTABLE:YES;
#BPMS:0.000=132.120;
#STOPS:;
#BGCHANGES:;

//---------------dance-single - ----------------
#NOTES:
     dance-single:
     :
     Hard:
     7:
     0.502,0.454,0.470,0.286,0.013: // measure 1
0002
0000
1003
0000
0010
0010
0110
0000
,  // measure 2
0200
0000
0310
0000
0100
0100
0101
0000
,  // measure 3
2000
0000
3001
0000
1000
1000
1001
0000
,  // measure 4
1000
0001
0001
0000
1000
1000
0000
1001
,  // measure 5
0000
0110
1001
0000
1020
0000
1030
0000
,  // measure 6
1002
0000
1000
0000
0103
0000
1000
0010
,  // measure 7
2000
0000
3010
0100
0002
0000
0103
0010
,  // measure 8
0100
0000
0001
0000
0100
0000
0010
0000
1000
0000
0000
1000
0000
0000
0010
0000
,  // measure 9
1010
0000
1000
0001
0100
0010
0100
0001
,  // measure 10
2000
0000
0001
0000
3010
0000
0010
1000
,  // measure 11
0001
0110
1001
0011
,  // measure 12
1100
0000
0001
1000
0010
0000
0010
0100
,  // measure 13
0001
0100
0010
1000
0001
0100
0010
1000
,  // measure 14
0002
0010
1000
0013
,  // measure 15
0001
0100
0010
1000
0001
0010
0100
0010
,  // measure 16
0200
0000
1000
0000
1300
0010
0100
0002
,  // measure 17
0000
0003
0100
0000
0010
1000
0001
0100
,  // measure 18
0020
1000
0100
1030
,  // measure 19
1000
0010
0100
0001
0100
0010
0100
0001
,  // measure 20
2000
0000
3001
0000
1000
0010
0100
0001
,  // measure 21
0200
0000
0310
0000
0100
0001
0100
0000
,  // measure 22
1020
0000
1030
0000
0010
1000
0001
0010
,  // measure 23
0200
0000
1300
0000
1000
0010
0100
0001
,  // measure 24
1000
1001
0001
1001
,  // measure 25
0010
0000
1010
0000
0001
0100
0010
0100
,  // measure 26
0020
0000
0130
0000
0100
0001
0100
0000
,  // measure 27
1001
0011
0101
0110
,  // measure 28
1002
0000
1003
0000
0001
1000
0010
0100
,  // measure 29
0020
0000
0130
0000
0001
0100
0010
1000
,  // measure 30
0002
0000
1003
0010
1000
0000
0010
0100
,  // measure 31
0001
0000
0100
0010
1000
0001
0010
0100
,  // measure 32
2000
0000
3010
0000
0100
0001
0100
0010
,  // measure 33
2000
0000
3001
0000
0100
0010
0100
0001
,  // measure 34
0020
0000
0031
0000
1000
0010
0100
0010
,  // measure 35
1010
0202
0000
0303
,  // measure 36
2001
0001
0010
3001
,  // measure 37
0001
1000
0010
0100
0001
1000
0100
0010
,  // measure 38
0002
0010
0100
1003
,  // measure 39
1000
0001
0010
0100
1000
0010
1000
0010
,  // measure 40
1001
0000
0101
0000
1010
0000
0001
1000
,  // measure 41
1001
0000
0110
0000
1001
0000
0010
0100
,  // measure 42
0101
0000
1001
0000
1010
0000
0010
1000
,  // measure 43
0020
0100
0100
0130
,  // measure 44
1000
0010
1000
0000
0101
0000
1010
0000
,  // measure 45
1001
0000
0010
1000
0001
0100
0010
0100
,  // measure 46
0002
0100
1000
0103
,  // measure 47
1001
0000
0000
0000
1000
0000
0010
0000
1000
0000
0000
0100
0000
0000
0010
0000
,  // measure 48
1001
0000
1000
0010
1000
0001
0100
0010
,  // measure 49
0010
0110
0101
1010
,  // measure 50
0001
2000
0001
3001
,  // measure 51
1001
0110
0011
1100
,  // measure 52
0100
1000
0010
0100
0010
0000
0101
0000
,  // measure 53
1001
0000
0001
1000
0010
0100
0001
1000
,  // measure 54
0020
0100
1000
0130
,  // measure 55
0100
0000
0010
0000
0100
0000
0001
0000
1000
0000
0000
0010
0000
0000
0100
0000
,  // measure 56
1010
0000
1000
0010
0100
0001
1000
0100
,  // measure 57
0020
0000
0001
0000
0001
0000
0031
0001
,  // measure 58
1000
1010
0101
0011
,  // measure 59
1100
0000
0010
1000
0010
0000
0100
0000
,  // measure 60
1001
0220
0030
0301
,  // measure 61
1001
0000
0000
0000
;

//---------------dance-single - ----------------
#NOTES:
     dance-single:
     :
     Medium:
     5:
     0.338,0.353,0.202,0.227,0.000: // measure 1
2000
3001
0200
0310
,  // measure 2
0020
0130
0002
1003
,  // measure 3
2000
3010
0200
0301
,  // measure 4
0010
0000
1000
0000
0001
1000
0000
0001
,  // measure 5
0000
1000
0010
0000
0010
0000
0100
0000
,  // measure 6
2002
0000
0000
0000
3003
0000
0000
0001
,  // measure 7
1000
0000
0001
1000
0000
0000
0010
0000
,  // measure 8
0100
0001
1000
0010
,  // measure 9
1010
0000
0101
0000
0010
0000
1000
0010
,  // measure 10
2000
0000
0010
0000
3001
0000
0001
1000
,  // measure 11
0002
0000
0100
0000
1003
0000
1000
0010
,  // measure 12
2000
0000
0010
0000
3010
0000
0100
0001
,  // measure 13
0200
0000
0001
0000
0301
0000
0001
1000
,  // measure 14
0010
0000
1000
0000
0001
1000
0010
0000
,  // measure 15
0001
0000
1000
0000
0100
1000
0100
0000
,  // measure 16
0010
0000
0001
0000
0010
0001
0010
0200
,  // measure 17
0000
1000
1000
1000
,  // measure 18
1300
0000
1100
0000
1000
0010
1000
0000
,  // measure 19
0010
0000
0100
0000
0001
1000
0010
0100
,  // measure 20
0001
0000
1000
0000
0010
1000
0010
0000
,  // measure 21
0100
0001
2000
3000
,  // measure 22
0001
0000
1000
0000
0001
0010
0001
0000
,  // measure 23
0100
0010
2000
3000
,  // measure 24
0010
0000
0010
0000
,  // measure 25
0010
0110
0010
0110
,  // measure 26
1001
0000
1001
0000
,  // measure 27
0001
1001
1000
1001
,  // measure 28
1001
0000
0000
0000
0001
1000
0010
0000
,  // measure 29
1000
0001
0200
0300
,  // measure 30
0010
0100
0010
0000
1000
0000
0001
0000
,  // measure 31
0020
0000
0030
0000
0001
1000
0100
0000
,  // measure 32
1000
0010
0100
0010
,  // measure 33
1001
0000
0001
0001
,  // measure 34
2000
0000
3002
0000
,  // measure 35
1003
1001
0000
0000
,  // measure 36
0010
0010
0010
0010
,  // measure 37
0020
0000
0130
0000
,  // measure 38
0001
0001
0001
0001
,  // measure 39
2000
0000
3001
0000
,  // measure 40
1000
0001
1001
0000
,  // measure 41
1000
0010
1010
0000
,  // measure 42
0020
0000
0230
0000
,  // measure 43
0301
0000
1000
0000
0001
0000
0000
1000
,  // measure 44
0000
0001
1000
0001
,  // measure 45
1001
0000
0001
0001
,  // measure 46
1000
0000
0001
1000
0000
0000
0010
0000
,  // measure 47
0100
0010
0100
0100
,  // measure 48
0010
0000
1000
0000
0001
0000
0010
0001
,  // measure 49
0010
0001
1000
0010
,  // measure 50
1000
0002
1000
1000
,  // measure 51
1003
1000
0001
1000
,  // measure 52
1001
0110
1001
0110
,  // measure 53
1001
0000
1000
0010
1000
0000
0001
0000
,  // measure 54
0100
0000
0010
0100
0000
0000
0010
0000
,  // measure 55
1000
0000
0001
0000
0010
0000
0100
1000
,  // measure 56
0100
1000
0010
0100
,  // measure 57
0001
0100
1000
0100
,  // measure 58
0001
2000
0001
0001
,  // measure 59
3001
0000
1000
0000
,  // measure 60
1001
0220
0330
0000
,  // measure 61
1001
0000
0000
0000
;

//---------------dance-single - ----------------
#NOTES:
     dance-single:
     :
     Easy:
     3:
     0.241,0.277,0.084,0.193,0.000: // measure 1
1000
0000
0001
0000
,  // measure 2
0101
0000
1010
0000
,  // measure 3
0100
0000
0010
0000
,  // measure 4
0000
0100
0000
0000
,  // measure 5
0100
0100
0100
0100
,  // measure 6
0020
0000
0000
0000
,  // measure 7
0100
0100
0130
0000
,  // measure 8
0100
0010
1000
0001
,  // measure 9
2000
0000
3001
0000
,  // measure 10
1000
0001
1000
0000
,  // measure 11
0001
0010
0100
0000
,  // measure 12
1000
0010
0100
0000
,  // measure 13
0002
1000
1000
1003
,  // measure 14
1000
0000
0010
0000
,  // measure 15
0200
0010
0010
0310
,  // measure 16
0001
2000
0000
3001
,  // measure 17
0000
1000
0001
0010
,  // measure 18
0001
1001
0000
1000
,  // measure 19
0010
1000
0001
0100
,  // measure 20
0010
0000
0100
0100
,  // measure 21
0010
0000
0100
0000
,  // measure 22
0001
0000
1000
1000
,  // measure 23
0002
0003
2000
3000
,  // measure 24
0010
0000
0100
0000
,  // measure 25
0010
0010
0100
0000
,  // measure 26
0002
0003
2000
3000
,  // measure 27
0100
0100
0010
0001
,  // measure 28
1001
0000
1000
0001
,  // measure 29
1000
0000
0010
0000
,  // measure 30
0100
0000
0001
0000
,  // measure 31
1000
0001
1000
0000
,  // measure 32
0020
0030
0200
0300
,  // measure 33
0001
0000
1000
0010
,  // measure 34
1000
0000
0001
0000
,  // measure 35
1000
1001
0000
0000
,  // measure 36
0002
1000
0100
1003
,  // measure 37
2000
0010
0001
3010
,  // measure 38
0020
0100
1000
0130
,  // measure 39
0002
0100
1000
0103
,  // measure 40
0100
0010
0100
0000
,  // measure 41
0001
1000
0001
0000
,  // measure 42
1000
0000
0001
0000
,  // measure 43
1010
0000
0101
0000
,  // measure 44
0100
0010
0100
0010
,  // measure 45
2002
0000
3003
0000
,  // measure 46
0001
0001
1000
0000
,  // measure 47
1000
0010
0100
0001
,  // measure 48
2000
0000
3001
0000
,  // measure 49
0001
0010
0100
0000
,  // measure 50
1000
0010
0100
0000
,  // measure 51
0001
1000
0001
0000
,  // measure 52
1000
0010
0100
0001
,  // measure 53
2002
0000
3003
0000
,  // measure 54
1000
1000
0001
0000
,  // measure 55
0001
0100
0010
1000
,  // measure 56
0002
0000
1003
0000
,  // measure 57
1000
0100
0010
0000
,  // measure 58
0001
0100
0010
0000
,  // measure 59
1000
0001
1000
0000
,  // measure 60
0002
2000
3003
0000
,  // measure 61
1001
0000
0000
0000
;
