#TITLE:Home Alone;
#SUBTITLE:;
#ARTIST:Hixxy & Technikore;
#TITLETRANSLIT:;
#SUBTITLETRANSLIT:;
#ARTISTTRANSLIT:;
#CREDIT:;
#BANNER:Home Alone-bn.png;
#BACKGROUND:Home Alone-bg.png;
#LYRICSPATH:Home Alone.lrc;
#CDTITLE:cd.png;
#MUSIC:Home Alone.ogg;
#OFFSET:-5.677;
#SAMPLESTART:52.470;
#SAMPLELENGTH:12.000;
#SELECTABLE:YES;
#BPMS:0.000=170.000,16.000=85.000,80.000=170.000;
#STOPS:;
#BGCHANGES:;

//---------------dance-single - ----------------
#NOTES:
     dance-single:
     :
     Hard:
     9:
     0.598,0.559,0.210,0.295,0.829:
2001
0000
3001
1000
0000
1000
0010
0100
,
0001
1000
0010
1000
0000
1000
0001
0010
,
0200
0000
0310
0001
0000
0010
0001
0100
,
0001
0010
0100
1000
0010
1000
0100
0000
,
1001
0000
0000
0010
0000
1000
0001
0000
0000
0010
0000
0000
0200
0000
0000
0000
0000
0000
0310
0000
0000
0000
0000
0000
,
0011
0000
0000
0001
0000
1000
0001
0000
0000
1000
0000
0000
2010
0000
0000
0001
0000
0000
3100
0000
0000
0010
0000
0000
,
0001
0000
1000
0001
0000
0000
1000
0000
0000
0001
0000
0010
0000
0000
0000
2000
0000
0000
3010
0000
0000
0100
0000
0000
,
0010
0000
0000
0100
0000
0000
0001
0000
0000
0010
0000
0100
0000
0000
1000
0000
0000
0010
0000
0000
0100
0000
0000
0000
,
1001
0000
0000
0010
0000
0000
0100
0000
0000
0001
0000
1000
0000
0000
0000
0200
0000
0000
1300
0000
0000
0002
0000
0000
,
1003
0000
0000
0010
0000
1000
0001
0000
0000
1000
0000
0010
0000
0000
0000
0200
0000
0000
0310
0000
0000
0100
0000
0001
,
1000
0000
1000
0001
0000
0001
1000
0000
0000
0010
0000
0000
0100
0000
0000
0001
0000
0000
1000
0000
0000
0100
0000
0000
,
1001
0001
1000
0001
2000
0000
3010
0000
,
2002
0000
0000
3003
0000
1000
0001
0000
0000
0010
0000
0100
0010
0000
0000
1000
0000
0000
0010
0000
0000
1000
0000
0000
,
0001
0000
0000
1000
0000
0010
0000
0000
0100
0000
0000
0010
0000
0000
1000
0000
0000
0010
0000
0000
0100
0000
0000
0001
,
0000
0000
0000
0001
1000
0000
0001
0000
1000
0000
0100
0000
0010
0000
0001
0100
,
0000
0010
0000
0100
0000
0001
0000
0100
0000
0010
0000
1000
0000
0000
0000
0000
,
0000
0001
0010
0000
0010
0000
0012
0000
0003
0000
0100
0000
1000
0000
2100
0000
,
3000
0000
0010
0000
0100
0000
0210
0000
0300
0000
0001
0000
1000
0000
0000
2002
,
0000
0000
0000
3003
0000
0000
0010
0000
0000
1000
0000
0000
0001
0000
0000
1000
0000
0000
0100
0000
1000
0000
0000
0020
,
0000
0000
0000
0100
0000
0100
0000
0200
0000
0000
0000
0000
0330
0000
0000
0000
,
1001
0000
1000
0010
1000
0010
1000
0000
0010
1000
0000
0010
,
0100
0000
0001
0010
0000
0100
1000
0000
0010
0100
0000
0001
,
0010
0000
0001
0010
0100
0010
0100
0000
0010
0001
0000
1000
,
0010
0000
0100
0010
0100
0010
0100
0000
0001
1000
0000
0001
,
2000
0000
0001
3000
1000
0000
0002
0000
0100
0003
0010
0000
,
1000
0000
0001
0100
0001
0100
0001
0000
1000
0000
0010
0000
,
1001
0000
0100
0000
1000
0000
0010
0000
1000
0010
1000
0010
,
1000
0000
0010
0000
0100
0000
0001
0000
1000
0000
0100
0000
,
1001
0000
1000
0100
1000
0100
0010
0000
0100
1000
0000
0010
,
0100
0000
0010
1000
0000
0001
0100
0000
0010
1000
0000
0001
,
0010
0000
0100
0010
0100
0010
0100
0000
1000
0001
0000
0100
,
0010
0000
1000
0001
0010
0001
0010
0000
0001
0100
0000
0010
,
2000
0000
0010
3000
0100
0000
0002
0000
1000
0003
1000
0000
,
0100
0000
0010
0001
0010
0001
0010
0000
0100
0000
1000
0000
,
0110
0000
0001
0000
1000
0000
0001
0000
0100
0010
0100
0010
,
0110
0000
0000
1000
0000
0000
0100
0000
0000
0010
0000
0000
1001
0000
0000
0000
,
0110
0000
0010
0100
0010
0100
0010
0000
1000
0001
0000
1000
,
0001
0000
0100
0010
0000
0100
0010
0000
0100
0001
0000
1000
,
0010
0000
1000
0010
0100
0010
0100
0000
0001
0100
0000
0010
,
1000
0000
0001
1000
0010
0100
0001
0000
0100
0010
0000
1000
,
0002
0000
0010
0000
0013
0000
2000
0000
0001
0000
3001
0000
,
0001
0000
1000
0100
1000
0001
0020
0000
0100
0000
0130
0000
,
0200
0000
0010
0000
0310
0000
0001
0000
0010
0100
0010
0100
,
0010
0000
0100
0000
1000
0000
1001
0000
1000
0000
0010
0000
,
1001
0000
1000
0001
1000
0001
1000
0000
0010
0100
0000
0001
,
0010
0000
0001
0100
0000
0010
1000
0000
0001
0100
0000
0001
,
0100
0000
0010
0100
0010
0100
0010
0000
0100
0001
0000
1000
,
0010
0000
0100
0001
0100
0001
1000
0000
0001
1000
0000
0010
,
0200
0000
0010
0000
0010
0000
0010
0000
0010
0300
0010
0000
,
0120
0000
0100
0000
0100
0000
0100
0000
0100
0030
0100
0000
,
2002
0003
0002
0003
,
3001
0000
0000
0000
;

//---------------dance-single - ----------------
#NOTES:
     dance-single:
     :
     Medium:
     5:
     0.369,0.365,0.153,0.172,0.000:
0010
0000
0100
0010
0000
0000
1000
0000
,
0001
0000
0010
0001
0000
0000
1000
0000
,
0100
0000
1000
0100
0000
0000
0100
0010
,
0200
2300
3002
0103
,
0001
1000
0001
1000
0001
0000
0000
0000
,
0000
0010
0100
0010
0100
0000
0000
0001
,
0010
0100
1000
0010
1000
0000
0000
0001
,
1000
0100
0010
0001
0100
0100
0100
0000
,
0100
1000
0100
0010
0100
0000
0001
0000
,
0100
0010
0100
0010
0100
0000
0000
0001
,
0100
0010
1000
0010
1001
0000
0000
0000
,
0000
0100
0100
0100
0200
0000
0310
0000
,
1001
0000
0010
0001
1000
0001
0100
0010
,
0100
0000
0001
0000
0010
0100
0010
0100
,
0010
0000
0001
0000
1000
0000
0100
1000
,
0100
0000
1000
0000
0010
1000
0001
0000
,
0000
0010
0100
2000
0000
3001
0010
0200
,
0000
1300
0010
2000
0000
3001
0100
0000
,
0020
0000
0000
0000
,
0100
0000
0130
0000
,
1001
0010
1000
0010
,
0100
0000
0001
1000
0001
0000
0010
0000
,
0100
0000
1000
0010
0100
0000
0100
0000
,
1001
0000
0100
0010
1000
0000
0001
0000
,
1000
0010
0100
0000
0001
0010
0001
0000
,
0010
0100
0010
0000
0100
1000
0100
0000
,
1000
0010
1000
0000
1001
0000
0100
0010
,
1000
0100
0010
0000
0010
0100
0010
0000
,
0020
0130
1000
0001
,
1000
0010
1000
0000
0001
0100
0001
0000
,
1010
0100
1001
1000
,
0100
1000
0100
0000
0010
0001
0010
0000
,
0002
0100
0100
0103
,
2000
0100
0100
3100
,
0020
1000
1000
1030
,
2002
0000
0000
3003
,
1001
0010
0010
0010
,
0110
1100
0101
0110
,
1001
1010
1000
0001
,
0001
1000
0001
0000
0001
0010
0001
0000
,
1000
0010
1000
0010
,
0100
0000
0001
0100
0010
0000
1000
0000
,
0100
0010
0001
1000
,
0010
1000
0100
0000
0010
0000
0001
0000
,
1001
0010
0100
0010
,
1000
0000
0100
1000
0100
0000
1000
0000
,
0010
0000
0100
0001
0100
0000
0010
0000
,
1000
0010
1000
0000
0010
0100
0010
0000
,
0002
0000
0100
0000
,
2003
0000
3010
0000
,
0020
0000
0200
0000
,
0330
0000
0000
0000
;

//---------------dance-single - ----------------
#NOTES:
     dance-single:
     :
     Easy:
     3:
     0.244,0.316,0.153,0.257,0.000: // measure 1
0001
0000
1000
0001
,  // measure 2
1000
0000
0100
0010
,  // measure 3
0100
0000
0010
0001
,  // measure 4
0010
0002
0020
0033
,  // measure 5
1001
0001
1000
0000
,  // measure 6
0010
0100
0020
0030
,  // measure 7
0100
0001
0002
0003
,  // measure 8
1000
1000
2000
0020
,  // measure 9
3030
0100
0100
0000
,  // measure 10
0000
0010
0010
0000
,  // measure 11
0100
0100
0010
0010
,  // measure 12
0110
0100
1001
1001
,  // measure 13
1001
0000
0010
0000
,  // measure 14
0100
0000
0020
0230
,  // measure 15
0320
0030
0100
0000
,  // measure 16
0002
2003
3200
0310
,  // measure 17
0110
0000
0000
0000
0000
1001
0000
0000
,  // measure 18
0000
1100
0000
0000
,  // measure 19
0011
0010
0010
0100
,  // measure 20
0020
0000
0200
0330
,  // measure 21
1000
1000
1000
0000
,  // measure 22
0001
0001
0001
0000
,  // measure 23
0010
0100
0010
0000
,  // measure 24
0001
1000
0001
0000
,  // measure 25
2000
0000
3010
0000
,  // measure 26
0200
0000
0301
0000
,  // measure 27
0020
0000
0031
0000
,  // measure 28
2000
0000
3010
0000
,  // measure 29
1000
0100
1000
0000
,  // measure 30
0001
1000
0010
0000
,  // measure 31
0100
0001
0010
0000
,  // measure 32
0001
0100
0010
0000
,  // measure 33
1000
0000
0001
0000
,  // measure 34
0101
0000
1010
0000
,  // measure 35
0110
0000
1001
0000
,  // measure 36
2002
0000
0000
3003
,  // measure 37
1000
0010
1000
0000
,  // measure 38
0001
0100
0001
0000
,  // measure 39
1000
0010
0100
0000
,  // measure 40
0001
0010
0100
1000
,  // measure 41
0010
0000
0100
0000
,  // measure 42
0200
0000
0310
0000
,  // measure 43
1001
0000
0110
0000
,  // measure 44
1000
0001
0100
0000
,  // measure 45
0100
0001
0100
0000
,  // measure 46
1000
0010
1000
0000
,  // measure 47
0100
0100
0100
0000
,  // measure 48
0010
0010
0010
0000
,  // measure 49
0002
0000
0200
0303
,  // measure 50
0020
0000
2000
3030
,  // measure 51
2000
0000
0002
0000
,  // measure 52
3003
0000
0000
0000
;
