#TITLE:Hide & Seek;
#SUBTITLE:(SCP ReVamp Mix);
#ARTIST:AAA;
#TITLETRANSLIT:;
#SUBTITLETRANSLIT:;
#ARTISTTRANSLIT:;
#CREDIT:;
#BANNER:Hide & Seek-bn.png;
#BACKGROUND:Hide & Seek-bg.png;
#LYRICSPATH:;
#CDTITLE:Super Eurobeat 202.png;
#MUSIC:Hide & Seek (SCP ReVamp Mix).mp3;
#OFFSET:-6.249;
#SAMPLESTART:71.270;
#SAMPLELENGTH:12.000;
#SELECTABLE:YES;
#BPMS:0.000=154.950;
#STOPS:60.000=0.387
,61.000=0.387
,66.000=1.162
,94.500=1.162
,128.000=0.774
,129.500=1.162
,151.000=1.162
,188.000=1.162
;
#BGCHANGES:;

//---------------dance-single - ----------------
#NOTES:
     dance-single:
     :
     Hard:
     8:
     0.558,0.484,0.480,0.207,0.113:
0001
1000
0001
1000
2002
0000
3003
0000
,
0100
0010
0100
0010
0220
0000
0330
0000
,
0100
0001
0100
0001
0202
0000
0303
0000
,
1000
0010
1000
0000
0100
0001
0100
0000
,
1000
0000
0010
0000
0100
0000
0010
0001
0000
0000
1000
0000
0001
0000
0100
0000
,
0010
0000
0100
0000
0001
0000
0100
0010
0000
0000
1000
0000
0100
0000
0001
0000
,
1000
0000
0010
0000
0100
0000
0001
0100
0000
0000
1000
0000
0100
0000
0010
0000
,
0001
1000
0001
0000
0100
0010
0100
0000
,
1001
0000
0000
0110
0000
0000
0100
0000
0010
0000
0000
0000
0110
0000
0000
0000
,
1001
0000
0000
1010
0000
0000
0001
0000
0010
0000
0000
0000
0011
0000
0000
0000
,
2000
0000
0000
0100
0000
0000
0010
0000
3200
0000
0000
0001
0000
0000
0010
0000
,
0302
0000
0000
1000
0000
0000
0010
0000
1003
0000
0000
0000
1001
0000
0000
0000
,
0110
0000
0000
1001
0000
0000
0100
0000
0010
0000
0000
0000
0011
0000
0001
0000
,
0010
0000
0000
0011
0000
0000
0100
0000
0010
0000
0000
0000
0010
0000
1000
0000
,
0010
0000
0000
0101
0000
0000
0100
0000
0010
0000
1000
0000
0001
0000
1000
0000
,
1001
1001
1001
1001
,
1001
0000
1001
0000
1001
0000
1000
0010
,
1000
0000
0001
0100
0001
0000
0001
0100
,
1000
0001
0010
1000
0100
1000
0010
0100
,
0001
0000
0010
0100
0001
0000
0100
1000
,
0010
1000
0001
0100
0010
0001
0010
0100
,
0001
0000
0010
0100
0010
0000
0100
1000
,
0100
0000
0001
1000
0001
0000
0001
0100
,
1000
0010
1000
0001
0010
1000
0000
0000
,
0010
0100
0001
1000
0010
1000
0001
0100
,
1000
0000
0001
0010
0100
0001
0100
1000
,
0001
0010
0010
0000
0100
1000
0001
0000
,
0100
1000
0001
0010
0100
0001
0100
1000
,
0010
1000
0010
0000
0001
0100
0001
0000
,
0001
0010
0100
0000
0100
0010
1000
0000
,
1000
0010
0100
1000
0001
0100
0010
1000
,
0001
0000
0000
1001
0000
0000
0010
0000
0000
1001
0000
0000
0100
0000
1000
0000
,
1001
0000
0010
1000
0000
0000
1001
0000
,
0001
0010
1000
0000
0001
0100
1000
0001
,
0010
0100
0001
0010
1000
0001
1001
0000
,
0001
0100
1000
0001
0010
0100
0100
1000
,
0010
0100
0001
0100
1000
0001
0100
0010
,
0001
0010
1000
0001
0100
0000
1001
0000
,
1001
0000
0000
0110
0000
0000
0010
0000
0100
0000
0000
0000
0110
0000
0000
0000
,
1001
0000
0000
0101
0000
0000
1000
0000
0100
0000
0000
0000
1100
0000
0000
0000
,
0002
0000
0000
0010
0000
0000
0100
0000
0023
0000
0000
1000
0000
0000
0100
0000
,
2030
0000
0000
0001
0000
0000
0100
0000
3001
0000
0000
0000
1001
0000
0000
0000
,
0110
0000
0000
1001
0000
0000
0010
0000
0100
0000
0000
0000
1100
0000
1000
0000
,
0100
0000
0000
1100
0000
0000
0010
0000
0100
0000
0000
0000
0100
0000
0001
0000
,
0100
0000
0000
1010
0000
0000
0010
0000
0100
0000
0001
0000
1000
0000
0001
0000
,
2001
3001
1002
1003
,
1001
0110
1001
0110
,
1001
0000
1000
0001
1000
0001
2002
0000
,
3003
0000
0010
0100
0010
0100
0220
0000
,
0330
0000
0010
1000
0010
1000
2020
0000
,
3030
0000
0001
0100
0001
0000
0010
1000
,
0010
0000
0000
0000
0001
0000
0100
0000
0010
0000
0100
1000
0000
0000
0001
0000
,
1000
0000
0010
0000
0100
0000
0010
0000
1000
0000
0010
0100
0000
0000
0001
0000
,
0010
0000
1000
0000
0001
0000
0100
0000
0010
0000
1000
0010
0000
0000
0001
0000
,
0010
0100
1000
0001
1000
0000
0010
0100
,
0010
2002
0000
0000
,
0000
0000
0000
0000
,
0000
3003
0000
0000
0000
0000
0000
0000
;

//---------------dance-single - ----------------
#NOTES:
     dance-single:
     :
     Medium:
     5:
     0.366,0.350,0.226,0.122,0.000:
1000
1000
0100
0000
,
0001
0100
0001
0000
,
0010
1000
0010
0000
,
0100
1000
0100
0000
0001
0100
0001
0000
,
0010
0100
0110
0000
,
0001
1000
1001
0000
,
0001
0100
0101
0000
,
1000
0010
0100
0000
0010
1000
0010
0000
,
0101
0000
1000
0001
0010
0000
0000
0000
,
1000
0000
0001
1000
0100
0000
0001
0000
,
0001
0000
0001
0001
0001
0000
1000
1000
,
1000
0000
0010
0010
0010
0000
0100
0000
,
0001
0000
0010
0100
0010
0000
1001
0000
,
0100
0000
0100
1000
0100
0000
1010
0000
,
0001
0100
1000
0001
,
0110
1001
1001
0010
,
0010
0010
1001
0100
,
1000
0000
0010
1000
0001
0000
0100
0000
,
0001
0010
0100
0001
,
0000
0000
0100
0000
0000
0000
0010
0100
,
0010
0000
0001
1000
0001
1000
0100
0000
,
0100
0010
0001
2000
,
0000
0000
0001
3001
,
0010
0000
0001
0010
0001
0010
0000
0000
,
0100
1000
0100
0000
0010
0000
0001
0000
,
0200
0000
0010
0010
,
0310
1000
0001
0100
,
2000
0000
3002
0013
,
0100
0000
0100
0000
0010
0100
0010
0000
,
0001
0010
0001
0000
0001
0100
0010
0000
,
0010
0100
0010
0100
,
0001
0000
1000
0010
0000
0100
0001
0000
,
1001
0000
0010
0100
0000
0000
1001
0000
,
0010
0100
0001
0000
0001
0000
1000
0000
,
0100
0010
0001
0002
,
0103
0020
0130
0200
,
0310
0000
0002
0000
1003
0000
0100
0010
,
1000
0000
0001
0100
0001
0000
1001
0000
,
0001
0000
0010
1000
0010
0000
1010
0000
,
0001
0000
0001
0010
0100
0000
1010
0000
,
0100
0000
0100
1000
0001
0000
0001
0100
,
0010
0010
0100
0001
,
0001
0000
0100
0010
0100
0000
0011
0000
,
0100
0000
1000
0010
0100
0000
0110
0000
,
0001
0010
0100
0010
,
0110
0000
1001
0000
,
0001
1000
0001
1000
,
1001
0010
0010
0100
,
0000
0001
0001
1000
,
0000
0010
0001
0100
,
0000
1001
0000
1001
,
1001
0000
0100
0000
1000
0010
2000
0000
,
0000
0000
3100
0000
0010
0100
0020
0000
,
0000
0000
0031
0000
0100
0001
0200
0000
,
0000
0000
0301
0010
0001
0000
0100
1000
,
0010
2002
0000
0000
,
0000
0000
0000
0000
,
0000
0000
0000
0000
0000
0000
0000
0000
0000
0000
0000
0000
0000
0000
0000
0000
0000
0000
0000
0000
0000
0000
0000
0000
0000
3003
0000
0000
0000
0000
0000
0000
0000
0000
0000
0000
0000
0000
0000
0000
0000
0000
0000
0000
0000
0000
0000
0000
0000
0000
0000
0000
0000
0000
0000
0000
0000
0000
0000
0000
0000
0000
0000
0000
0000
0000
0000
0000
0000
0000
0000
0000
0000
0000
0000
0000
0000
0000
0000
0000
0000
0000
0000
0000
0000
0000
0000
0000
0000
0000
0000
0000
0000
0000
0000
0000
0000
0000
0000
0000
0000
0000
0000
0000
0000
0000
0000
0000
0000
0000
0000
0000
0000
0000
0000
0000
0000
0000
0000
0000
0000
0000
0000
0000
0000
0000
0000
0000
0000
0000
0000
0000
0000
0000
0000
0000
0000
0000
0000
0000
0000
0000
0000
0000
0000
0000
0000
0000
0000
0000
0000
0000
0000
0000
0000
0000
0000
0000
0000
0000
0000
0000
0000
0000
0000
0000
0000
0000
0000
0000
0000
0000
0000
0000
0000
0000
0000
0000
0000
0000
0000
0000
0000
0000
0000
0000
0000
0000
0000
0000
0000
0000
;

//---------------dance-single - ----------------
#NOTES:
     dance-single:
     :
     Easy:
     3:
     0.258,0.269,0.169,0.047,0.000: // measure 1
1000
0001
1000
0000
,  // measure 2
0010
0100
0010
0000
,  // measure 3
0001
0100
0001
0000
,  // measure 4
1010
0000
0101
0000
,  // measure 5
0010
0100
0010
0000
,  // measure 6
0100
1000
0100
0000
,  // measure 7
0001
0010
0001
0000
,  // measure 8
0011
0000
1100
0000
,  // measure 9
0010
0010
0010
0000
,  // measure 10
0100
0100
0100
0000
,  // measure 11
1001
0000
0110
0000
,  // measure 12
0001
0001
1000
0001
,  // measure 13
1000
0010
1000
0000
,  // measure 14
0100
0001
0100
0000
,  // measure 15
0010
0000
0100
0000
,  // measure 16
0110
1001
0100
0100
,  // measure 17
0100
0100
0100
0100
,  // measure 18
0001
0100
0001
0100
,  // measure 19
0000
0010
0000
1000
,  // measure 20
0100
1000
0001
0100
,  // measure 21
0000
0010
0001
0010
,  // measure 22
0000
0010
0000
1000
,  // measure 23
0001
0010
0001
1000
,  // measure 24
0000
0000
0010
0000
0000
0100
0000
0000
,  // measure 25
1000
0001
1000
0001
,  // measure 26
0100
0000
0010
0000
,  // measure 27
0010
0100
0001
1000
,  // measure 28
0020
0000
1000
1000
,  // measure 29
1030
0001
1000
0010
,  // measure 30
0100
0000
0200
0000
,  // measure 31
0010
0000
0001
0300
,  // measure 32
0001
0000
1000
0000
,  // measure 33
1010
0000
0000
0101
0000
0000
0010
0000
,  // measure 34
0010
0010
0010
0100
,  // measure 35
0100
0100
0100
0002
,  // measure 36
0000
0100
0100
0203
,  // measure 37
0000
0010
0010
0310
,  // measure 38
0010
1000
0001
1001
,  // measure 39
0001
0100
0001
0000
,  // measure 40
1000
0010
1000
0000
,  // measure 41
1000
0100
1000
0100
,  // measure 42
0001
0010
0001
0010
,  // measure 43
0001
1000
0001
0000
,  // measure 44
0100
0010
0100
0000
,  // measure 45
0010
0010
0100
0100
,  // measure 46
1001
0000
1001
0000
,  // measure 47
0001
0001
1000
1000
,  // measure 48
1010
0001
1000
0001
,  // measure 49
0000
0100
0010
0100
,  // measure 50
0000
1000
0010
1000
,  // measure 51
0000
0101
0000
1010
,  // measure 52
0000
0100
0010
0100
,  // measure 53
0000
0010
0001
0010
,  // measure 54
0000
1000
0100
1000
,  // measure 55
0000
1100
0000
0011
,  // measure 56
0000
0200
0000
0000
,  // measure 57
0000
0000
0000
0000
,  // measure 58
0000
0300
0000
0000
0000
0000
0000
0000
;
