#TITLE:Hi-Speed Mania;
#SUBTITLE:;
#ARTIST:Cy-Ro;
#TITLETRANSLIT:;
#SUBTITLETRANSLIT:;
#ARTISTTRANSLIT:;
#CREDIT:;
#BANNER:Hi-Speed Mania-bn2.PNG;
#BACKGROUND:Hi-Speed Mania-bg2.PNG;
#LYRICSPATH:;
#CDTITLE:cd.png;
#MUSIC:Hi-Speed Mania.ogg;
#OFFSET:-6.060;
#SAMPLESTART:42.050;
#SAMPLELENGTH:12.000;
#SELECTABLE:YES;
#BPMS:0.000=159.990;
#STOPS:;
#BGCHANGES:;

//---------------dance-single - ----------------
#NOTES:
     dance-single:
     :
     Hard:
     9:
     0.662,0.611,0.163,0.230,0.038:
1000
0001
0100
0010
0001
0100
0010
0001
,
0100
0001
0010
1000
0100
1000
0001
0100
,
0010
1000
0100
1000
0001
0100
0001
0100
,
0010
0100
0001
0100
0010
1000
0100
1000
,
0010
1000
0010
0100
0001
0100
0010
0100
,
0001
0100
1000
0010
1000
0001
0100
0010
,
0100
0001
0100
0010
1000
0100
1000
0010
,
0100
0000
0000
0001
0000
0000
0010
0000
1000
0000
0100
0000
1000
0000
0000
0000
,
0020
0000
0130
0000
0001
1000
0010
0000
,
0001
1000
0100
1000
0001
1000
0010
0000
,
0020
0000
1030
0000
0100
1000
0100
0000
,
0001
0100
0010
0100
0001
0100
0010
0100
,
0002
0000
0103
0000
0010
1000
0010
0000
,
0100
1000
0010
0100
0010
0100
0010
0000
,
0002
0000
0103
0000
1001
0000
0010
1000
,
0100
1000
0010
0100
,
0001
0100
0001
0100
0001
0000
0101
0000
,
0010
1000
0100
1000
0001
0100
0010
1000
,
0010
0100
0001
0100
0010
0000
0110
0000
,
0100
1000
0010
0100
0001
0100
0001
0010
,
0001
0010
0100
0010
0001
0000
0101
0000
,
0010
1000
0100
1000
0010
0100
0010
0100
,
0001
0010
0100
1000
0010
0100
0001
0010
,
0100
1000
0010
0100
0001
0000
1001
0000
,
0020
0000
1030
0000
0001
1000
0010
1000
,
0200
0000
1300
0000
0001
1000
0010
0100
,
0010
0100
0001
0100
0001
0100
0010
0100
,
0001
1000
0010
0100
1000
0010
0010
1000
,
0002
0000
0103
0000
0010
0100
0001
0100
,
0020
0000
1030
0000
0100
1000
0010
0100
,
0001
0010
0100
1000
0010
0100
0001
1000
,
0010
0100
0010
1000
0010
0100
0010
1000
,
0200
0000
1300
0000
0001
0100
0010
0100
,
0002
0000
0013
0000
0100
1000
0010
0100
,
0001
1000
0010
0010
1000
0001
1000
0010
,
0100
0001
0001
1000
0100
1000
0010
0100
,
0002
0000
0103
0000
0010
0010
0010
0001
,
0200
0000
1300
0000
0100
0100
0100
0010
,
1000
0001
1000
0000
0010
0100
0010
0000
,
0101
1100
0110
1001
,
2000
0001
3010
0100
0001
1000
0010
0000
,
0002
1000
0013
0100
0001
1000
0010
0000
,
0100
0000
1000
0100
1000
0000
0100
0010
0100
0000
0010
1000
0010
0000
0001
0000
,
1000
0010
0100
0001
1000
0010
0100
0010
,
0020
0000
0130
0000
0001
0001
0002
0100
,
2003
0000
3100
0000
0100
0100
0200
1000
,
0301
1000
0010
0000
0010
0100
0100
0000
,
0011
1100
0110
0101
,
0200
0010
0301
1000
0010
0100
0001
0000
,
0020
0100
0031
1000
0010
0100
0001
0000
,
1000
0000
0100
1000
0100
0000
1000
0001
1000
0000
0001
0100
0001
0000
0010
0000
,
0100
0001
1000
0010
0100
0001
1000
0001
,
0002
0000
1003
0000
0010
0010
0020
1000
,
0230
0000
1300
0000
1000
1000
2000
0001
,
3010
0100
0001
0000
0001
1000
1000
0000
,
0011
1100
1001
1010
,
1000
0010
1000
0100
1000
0001
0010
0100
,
0001
1000
0010
0100
0001
0100
1000
0001
,
0010
0001
0100
0010
0001
0100
1000
0010
,
0100
0001
0100
1000
0001
0010
0100
0001
,
0010
0100
0001
0100
0010
0100
0001
0100
,
0010
0100
1000
0010
0100
0001
1000
0010
,
0100
0001
0010
0100
1000
0001
0100
0010
,
0010
0000
0000
0001
0000
0000
1000
0000
0100
0000
0010
0000
0001
0000
0000
0000
;

//---------------dance-single - ----------------
#NOTES:
     dance-single:
     :
     Challenge:
     11:
     1.000,1.000,1.000,0.345,1.000:
1000
0100
0001
1000
0100
0001
0010
1000
0001
0010
0100
1000
0010
0100
0001
0010
,
0100
1000
0001
0100
0010
0001
1000
0010
0100
0001
1000
0010
0001
1000
0100
0001
,
0010
0100
1000
0010
0100
0010
1000
0100
0001
1000
0100
1000
0001
0010
0100
0001
,
0010
1000
0100
0010
0001
1000
0100
0001
0010
0100
1000
0001
0100
0010
1000
0100
,
1001
0010
1000
0100
0010
1000
0100
1000
0001
0010
0100
0001
0010
1000
0100
0010
,
0001
1000
0100
0001
1000
0100
0010
0001
1000
0100
0001
1000
0100
0001
0010
1000
,
0100
0010
0001
1000
0100
0001
0010
0100
1000
0001
0100
0010
1000
0001
0010
1000
,
0110
0000
0000
0101
0000
0000
0011
0000
1010
0001
0101
0010
1010
0001
0100
0001
,
0110
0001
0110
0001
0101
1010
0010
0110
,
0011
0000
1001
0000
0110
0000
1100
0000
0011
0000
1001
0100
0011
1000
0110
1000
,
0011
0100
1001
0010
0101
1010
0100
0011
,
1001
0000
0110
0000
0011
0000
1100
0001
0010
0000
0110
1000
0011
0100
0110
1000
,
1010
0010
1001
0001
0110
0101
0100
0101
,
1010
0000
1100
0000
1010
0000
0110
0000
0011
0000
0011
0000
1010
0100
0001
0010
,
1010
0001
0101
1000
0110
1001
0100
2200
,
3300
0202
0303
0202
0303
0201
0000
0301
,
1001
0100
1001
0110
0101
0010
0101
0110
,
0011
0000
1010
0000
0110
0000
1010
0000
0001
0000
0110
0001
1010
0000
1100
0000
,
0011
1100
0011
0110
0110
0011
0110
0011
,
1100
0001
1000
0100
0010
0001
0100
1000
0011
1000
0100
0010
0001
0100
0010
1000
,
0011
0001
0110
1001
0101
0100
0110
0101
,
1100
0000
0110
0000
0101
0000
0011
0000
0001
0000
1001
0010
0101
0000
1100
0000
,
1100
1010
1100
1010
1010
0110
0101
0220
,
0330
1001
0011
0110
0220
0000
2032
3303
,
1001
0010
1001
0100
0011
1001
0011
1001
,
0110
0000
0001
0000
1100
0000
0010
0000
0011
0100
1000
0010
0001
0100
1000
0010
,
0101
0101
0011
0011
0110
0110
1010
1010
,
0011
0100
1000
0001
1010
0000
0110
0001
1000
0100
1010
0000
0011
0100
1010
0000
,
0011
0100
0011
1000
0101
0011
0101
0011
,
1100
0000
0001
0000
1010
0000
0100
0000
0101
1000
0010
0100
0001
1000
0010
0100
,
1001
1001
0101
0101
1100
1100
0110
0110
,
0101
1000
0010
0001
0110
0000
1100
0001
0010
1000
0110
0001
0100
1000
0110
0001
,
0101
1000
0101
0010
1001
0101
1001
0101
,
1010
0000
0001
0000
0110
0000
1000
0000
1001
0010
0100
1000
0001
0010
0100
1000
,
0011
0011
1001
1001
1010
1010
1100
1100
,
1001
0010
0100
0001
1100
0000
1010
0001
0100
0010
1100
0000
1001
0010
1100
0000
,
1001
0010
1001
0100
0011
1001
0011
1001
,
0110
0000
0001
0000
1100
0000
0010
0000
0011
0100
1000
0010
0001
0100
1000
0010
,
0101
0101
0011
0011
0110
0110
1010
2020
,
3030
2002
3003
2020
3030
2002
0000
3003
,
0011
0000
0100
0000
0011
0000
1000
0000
0101
0000
0011
0000
0101
0000
0011
0100
,
1001
0000
0001
0000
1010
0000
0100
0000
0101
1000
0010
0100
0001
1000
0010
0100
,
1001
0000
1001
0100
1100
0000
0101
0010
1100
0000
1100
0001
0110
0000
0110
0000
,
0101
1000
0020
0001
1130
0000
1200
0001
0310
1000
0120
0000
0131
1000
0110
0000
,
0101
0000
0101
0000
1010
0000
1010
0000
1001
0000
0101
0000
1001
0000
0101
1000
,
1010
0000
0001
0000
0110
0000
1000
0000
1001
0010
0100
1000
0001
0010
0100
1000
,
0011
0000
0011
0100
1001
0000
1001
0100
1010
0000
1010
0001
1100
0000
1100
0010
,
1001
0010
0100
0001
1100
0000
1010
0001
0100
0010
1100
0001
1000
0010
1100
0001
,
1001
0000
0010
0000
1001
0000
0100
0000
0011
0000
1001
0000
0011
0000
1001
0100
,
0110
0000
0001
0000
1100
0000
0010
0000
0011
0100
1000
0010
0001
0100
1000
0010
,
0101
0000
0101
1000
0011
0000
0011
1000
0110
0000
0110
0001
1010
0000
1010
0100
,
0011
0100
2000
0001
3110
0000
0120
0001
1030
0100
2010
0000
3011
0100
1010
0000
,
0011
0000
1100
0000
0011
0000
1100
0000
0101
0000
0011
0000
0101
0000
0011
0100
,
1100
0000
1100
0000
1010
0000
1010
0000
0101
1000
0010
0100
0001
1000
0010
0100
,
1001
0000
1001
0010
0101
0000
0101
0010
1100
0000
1100
0001
0110
0000
0220
0000
,
0330
0022
0033
0220
0330
0022
0100
0133
,
0010
1000
0001
0010
1000
0001
0100
0010
0001
0100
1000
0010
0100
1000
0001
0100
,
1000
0010
0001
1000
0100
0001
0010
0100
1000
0001
0010
0100
0001
0010
1000
0001
,
0100
1000
0010
0100
1000
0100
0010
1000
0001
0010
1000
0010
0001
0100
1000
0001
,
0100
0010
1000
0100
0001
0010
1000
0001
0100
1000
0010
0001
1000
0100
0010
1000
,
0011
0100
0010
1000
0100
0010
1000
0010
0001
0100
1000
0001
0100
0010
1000
0100
,
0001
0010
1000
0001
0010
1000
0100
0001
0010
1000
0001
0010
1000
0001
0100
0010
,
1000
0100
0001
0010
1000
0001
0100
1000
0010
0001
1000
0100
0010
0001
0100
0010
,
1100
0000
0000
1001
0000
0000
0201
0000
0010
0000
0001
0000
0310
0000
0000
0000
;

//---------------dance-single - ----------------
#NOTES:
     dance-single:
     :
     Medium:
     7:
     0.526,0.520,0.125,0.182,0.010: // measure 1
1000
0001
0010
0000
0100
0001
0010
0000
,  // measure 2
0100
1000
0010
0000
0001
0010
0100
0000
,  // measure 3
0001
1000
0010
0000
0100
1000
0010
0000
,  // measure 4
0001
0010
0100
0000
0100
1000
0010
0000
,  // measure 5
0001
1000
0010
0000
0001
0010
0100
0000
,  // measure 6
0010
1000
0001
0000
0010
0100
0001
0000
,  // measure 7
0100
1000
0100
0000
0010
0100
0001
0000
,  // measure 8
0100
0000
0000
0001
0000
0000
0010
0000
1000
0000
0100
0000
1000
0000
0000
0000
,  // measure 9
1000
0000
0001
0000
0010
0100
0000
0001
,  // measure 10
0000
0001
1000
0100
1000
0010
0010
0000
,  // measure 11
0100
0000
0001
0000
0100
0010
0000
0001
,  // measure 12
0000
0101
0000
1010
0000
1100
0000
0010
,  // measure 13
1000
0000
0001
0000
0001
0100
0000
1000
,  // measure 14
0000
0001
0010
0100
0100
0010
0100
0000
,  // measure 15
1000
0000
0001
0000
0001
0010
0000
0001
,  // measure 16
0000
0011
0000
1100
0000
0220
0000
0330
,  // measure 17
0001
0000
1000
0001
1000
0000
1100
0000
,  // measure 18
0001
0100
0000
0010
0000
0010
0000
0000
,  // measure 19
1000
0001
1000
0000
0100
1000
0100
0000
,  // measure 20
0010
0100
0000
0001
0000
0001
0000
1000
,  // measure 21
0100
0000
0010
0100
0010
0000
0011
0000
,  // measure 22
0100
1000
0100
0000
0001
0000
0100
0000
,  // measure 23
0010
0100
0001
0100
0010
1000
0000
0001
,  // measure 24
0000
0010
1000
0100
1000
0000
0010
0000
,  // measure 25
2000
0000
3001
0000
0010
0100
0010
0000
,  // measure 26
0200
0000
1000
0300
0001
1000
0001
0000
,  // measure 27
0001
1000
0001
0000
0010
0100
0010
0000
,  // measure 28
0002
0103
2000
3100
,  // measure 29
0001
0000
0010
0000
0100
0001
0100
0000
,  // measure 30
0020
0000
0130
0000
0001
1000
0001
0000
,  // measure 31
0100
1000
0100
0000
0010
1000
0010
0000
,  // measure 32
0100
1000
0001
0000
0001
0010
0100
0000
,  // measure 33
0002
0000
0103
0000
0010
0100
0010
0000
,  // measure 34
0002
0000
0013
0000
0100
1000
0100
0000
,  // measure 35
0010
0100
0010
0000
1000
0010
1000
0000
,  // measure 36
0001
0010
1000
0001
0100
1000
0001
0000
,  // measure 37
0002
0000
1003
0000
0100
1000
0100
0000
,  // measure 38
0002
0000
0013
0000
0100
0010
0001
0000
,  // measure 39
0001
0010
0001
0000
0010
1000
0010
0100
,  // measure 40
0000
0001
0000
0100
0000
1000
0000
0000
,  // measure 41
0002
0000
1003
0000
0010
0010
0010
0000
,  // measure 42
2000
0000
3100
0000
0100
0100
0100
0000
,  // measure 43
1000
1000
0001
0001
1000
1000
0010
0010
,  // measure 44
0100
0100
0001
1000
0001
1000
0010
0100
,  // measure 45
0002
0000
0103
0000
0010
0010
0010
0000
,  // measure 46
2000
0000
3100
0000
0100
0100
0100
0000
,  // measure 47
1000
0001
0000
0010
0000
1000
0000
1001
,  // measure 48
0000
0011
0000
1100
0000
0110
0000
0000
,  // measure 49
0002
0000
1003
0000
0010
0100
0001
0000
,  // measure 50
0200
0000
1300
0000
0001
0010
0100
0000
,  // measure 51
0010
0010
1000
1000
0100
0100
1000
1000
,  // measure 52
0001
1000
0010
0100
0001
0010
0100
0001
,  // measure 53
0200
0000
1300
0000
0001
0010
0100
0000
,  // measure 54
0020
0000
0130
0000
0001
0100
1000
0000
,  // measure 55
0001
0010
0100
0000
0001
0100
1000
0010
,  // measure 56
0000
0100
0000
0001
0000
1001
0000
0000
,  // measure 57
0100
0010
1000
0000
0001
0010
1000
0000
,  // measure 58
0001
0100
1000
0000
0010
1000
0001
0000
,  // measure 59
0010
0100
1000
0000
0001
0100
1000
0000
,  // measure 60
0010
1000
0001
0000
0001
0100
1000
0000
,  // measure 61
0010
0100
1000
0000
0010
1000
0001
0000
,  // measure 62
1000
0100
0010
0000
1000
0001
0010
0000
,  // measure 63
0001
0100
0001
0000
1000
0001
0010
0000
,  // measure 64
0001
0000
0000
0010
0000
0000
1000
0000
0100
0000
0001
0000
0100
0000
0000
0000
;

//---------------dance-single - ----------------
#NOTES:
     dance-single:
     :
     Easy:
     4:
     0.366,0.336,0.067,0.230,0.000: // measure 1
0100
1000
0001
1000
,  // measure 2
0001
1000
0010
0001
,  // measure 3
0010
1000
0001
1000
,  // measure 4
0010
0001
0001
1000
,  // measure 5
0010
1000
0010
0001
,  // measure 6
1000
0010
1000
0010
,  // measure 7
0001
0001
1000
0010
,  // measure 8
0002
0000
0100
0103
,  // measure 9
0100
0010
2000
0000
,  // measure 10
3001
0100
0100
1000
,  // measure 11
0001
0010
0001
0100
,  // measure 12
2000
0000
3020
0000
,  // measure 13
0130
0010
0010
0000
,  // measure 14
1000
0000
0001
0000
,  // measure 15
0100
0010
0010
1000
,  // measure 16
0100
0000
0001
0000
,  // measure 17
0010
0100
0100
0101
,  // measure 18
0010
0000
0000
0010
0000
0000
0000
0000
,  // measure 19
0100
0100
0001
1001
,  // measure 20
1000
0000
0000
0100
0000
0000
0000
0000
,  // measure 21
0001
1000
1000
1010
,  // measure 22
0001
0000
0000
0010
0000
0000
0001
0000
,  // measure 23
1000
0010
1000
0000
,  // measure 24
0100
0100
0100
1000
,  // measure 25
0200
0310
1000
1000
,  // measure 26
0002
0103
0010
0010
,  // measure 27
0010
0010
1000
1000
,  // measure 28
0020
0031
0200
0301
,  // measure 29
0020
1030
0001
0001
,  // measure 30
2000
3001
0010
0010
,  // measure 31
0001
0001
1000
1000
,  // measure 32
0001
0010
0010
0001
,  // measure 33
0020
0031
1000
1000
,  // measure 34
0020
1030
0001
0001
,  // measure 35
1000
1000
0100
0100
,  // measure 36
0010
0100
0001
0010
,  // measure 37
0020
0130
0001
0001
,  // measure 38
0020
1030
0001
0010
,  // measure 39
0010
0010
1000
1000
,  // measure 40
1001
0000
0110
0000
,  // measure 41
0020
1030
0001
0001
,  // measure 42
0200
0310
1000
1000
,  // measure 43
1000
1000
0001
0001
,  // measure 44
2000
3100
0020
0130
,  // measure 45
2000
3001
0100
0100
,  // measure 46
0002
0103
1000
1000
,  // measure 47
0100
0100
0001
0001
,  // measure 48
0100
1000
1000
0100
,  // measure 49
2000
3100
0001
0001
,  // measure 50
2000
3001
0100
0100
,  // measure 51
0001
0001
0010
0010
,  // measure 52
1000
0010
0100
1000
,  // measure 53
2000
3010
0100
0100
,  // measure 54
2000
3001
0100
1000
,  // measure 55
1000
1000
0001
0001
,  // measure 56
0101
0000
1010
0000
,  // measure 57
0001
0100
0010
0100
,  // measure 58
0010
0100
1000
0010
,  // measure 59
1000
0100
0010
0100
,  // measure 60
1000
0010
0010
0100
,  // measure 61
1000
0100
1000
0010
,  // measure 62
0100
1000
0100
1000
,  // measure 63
0010
0010
0100
1000
,  // measure 64
0010
0000
0001
0001
;
