#TITLE:Grand Prix;
#SUBTITLE:;
#ARTIST:Mega NRG Man;
#TITLETRANSLIT:;
#SUBTITLETRANSLIT:;
#ARTISTTRANSLIT:;
#CREDIT:;
#BANNER:Grand prix-bn.png;
#BACKGROUND:Grand prix-bg.png;
#LYRICSPATH:;
#CDTITLE:Super Eurobeat 102.png;
#MUSIC:Grand Prix.ogg;
#OFFSET:-10.540;
#SAMPLESTART:48.030;
#SAMPLELENGTH:12.000;
#SELECTABLE:YES;
#BPMS:0.000=159.980;
#STOPS:;
#BGCHANGES:;

//---------------dance-single - ----------------
#NOTES:
     dance-single:
     :
     Medium:
     4:
     0.362,0.372,0.171,0.271,0.000:
0000
1000
0000
0001
0000
1000
0000
0001
,
0100
0010
0001
1000
,
0100
0010
0001
0100
,
0010
1000
0100
0001
,
1000
0010
0001
0100
,
0001
1000
0100
0100
,
0001
0010
0100
0001
,
0010
0010
1000
1000
,
0010
1000
0100
1000
,
0002
0000
2003
0000
,
3100
0010
0001
0100
,
0001
0001
0002
0000
,
1003
1000
2000
0000
,
3010
0100
1001
0000
,
0001
0000
0100
1000
,
0100
0100
0200
0000
,
0310
0010
0020
0000
,
0130
2001
0000
0001
,
3001
1002
0000
1000
,
1003
0001
1000
1001
,
0010
0100
0010
0110
,
1001
0000
0000
0110
0000
0000
2002
0000
,
3003
0001
0100
0010
,
0002
0000
1000
1000
1003
0000
0010
0000
,
2002
0000
0000
3003
,
0001
0010
0010
0100
,
2001
0000
0000
0002
3000
0000
1003
0000
,
0010
0000
0100
0000
2001
0000
0010
3000
,
0001
0010
0100
0001
,
0010
0100
0001
0100
,
1002
0000
0000
2000
0003
0000
3010
0000
,
0100
0100
1000
0010
,
0100
0001
2000
0000
,
3010
1000
1000
0001
,
0210
0000
0000
0020
0300
0000
0130
0000
,
1000
0000
0001
0000
0210
0000
1000
0300
,
0010
1000
0001
0010
,
1000
0001
0010
0001
,
0120
0000
0000
0200
0030
0000
1300
0000
,
0001
0001
0100
1000
,
0001
0010
0200
0000
,
0301
0100
1000
0001
,
0010
0100
1000
0010
,
0100
0001
0010
1000
,
0001
0100
1000
0010
,
1000
0001
0010
0010
,
1000
0100
0010
1000
,
0100
0100
0001
0001
,
0100
0001
0010
0001
,
1001
0010
0100
0010
,
1000
0001
0100
1000
,
0001
0010
1000
0100
,
0010
0001
0100
1000
,
0100
0010
1000
1000
,
0100
0001
1000
0100
,
0001
0001
0010
0010
,
0001
0010
1000
2020
,
3030
0000
0000
0000
;

//---------------dance-single - ----------------
#NOTES:
     dance-single:
     :
     Hard:
     8:
     0.597,0.487,0.181,0.392,0.241:
0000
1001
0000
1010
0000
0101
0000
1001
,
0010
0000
1000
0000
0010
0000
0001
0000
0010
1000
0000
0000
0001
0100
0000
0000
,
0010
0000
1000
0000
0100
0000
0010
0000
0001
1000
0000
0000
0010
0100
0000
0000
,
0010
0000
1000
0000
0001
0000
1000
0000
0001
0010
0000
0000
0100
1000
0000
0000
,
0010
0001
0000
0000
1000
0100
0000
0000
1000
0000
0100
0000
0020
0000
0000
0000
,
0031
0000
1000
0000
0001
0000
0100
0000
0010
1000
0000
0000
0010
0100
0000
0000
,
0001
0000
1000
0000
0001
0000
1000
0000
0100
0010
0000
0000
0001
1000
0000
0000
,
0100
0000
1000
0000
0100
0000
0010
0000
0001
1000
0000
0000
0001
0100
0000
0000
,
0100
0010
0000
0000
1000
0001
0000
0000
0100
0000
0001
0000
2000
0000
0000
0000
,
3001
0000
0100
0010
1000
0000
1001
0000
,
0010
1000
0100
0000
0010
0001
0010
0001
,
2000
0010
0100
3010
,
0100
0010
0100
0010
2000
0000
0010
0000
,
3100
0010
0001
0010
0001
0000
1002
0000
,
0000
0000
0000
0000
0000
1000
0000
1003
,
0000
0000
1002
0000
1003
0010
1000
0000
,
1001
0000
0100
0010
1000
0100
0010
0000
,
2001
0000
3010
0100
0010
0100
0010
0000
,
0210
0000
0301
1000
0010
1000
0001
0000
,
0020
0230
2300
3002
,
2003
0000
3010
0100
0010
0100
0010
0000
,
1001
0000
0100
0010
1000
0000
0001
0010
,
0002
1003
2000
3010
,
0200
0000
0001
0001
0301
0000
1001
0000
,
0200
0000
0010
0010
0020
0000
0330
0000
,
1010
0000
2001
0000
3001
1000
0100
0010
,
2002
0000
3003
0022
0000
0030
1003
0000
,
1000
0100
0010
0000
0100
0010
0001
0000
,
1000
0100
0010
0001
0100
0010
1000
0010
,
0200
0000
0310
0000
1000
0001
1000
0001
,
2002
0000
3000
0020
0000
0030
1003
0000
,
0100
0010
1000
0000
1000
0100
0010
0000
,
0001
0010
0001
1000
0100
0010
0001
1000
,
0020
0000
0130
0000
0010
1000
0010
0100
,
0020
0000
0000
2000
0000
3000
0130
0000
,
0002
0000
0103
0000
0010
1000
0010
0000
,
1000
0001
0010
0100
1000
0100
1000
0001
,
0020
0000
0130
0000
1000
0100
1000
0010
,
2000
0000
0000
0020
0000
0030
3001
0000
,
1000
0010
1000
0000
0001
0010
0001
1001
,
0000
1000
0001
0200
0000
0000
0301
0000
,
0001
0000
0100
0000
0001
0000
1000
0000
0010
0100
0000
0000
0001
1000
0000
0000
,
0001
0000
1000
0000
0010
0000
1000
0000
0001
1000
0000
0000
0001
0100
0000
0000
,
0010
0000
0100
0000
0001
0000
1000
0000
0010
1000
0000
0000
0001
1000
0000
0000
,
0001
0010
0000
0000
0100
0010
0000
0000
0001
0000
0010
0000
0200
0000
0000
0000
,
0310
0000
0001
0000
1000
0000
0010
0000
1000
0010
0000
0000
0100
0010
0000
0000
,
1000
0000
0001
0000
0010
0000
0100
0000
0010
0100
0000
0000
0010
0001
0000
0000
,
1000
0000
0100
0000
0010
0000
0001
0000
1000
0001
0000
0000
0010
0100
0000
0000
,
1000
0001
0000
0000
0100
0010
0000
0000
1000
0000
0010
0000
2000
0000
0000
0000
,
3010
0000
0010
0000
1000
0000
0001
0000
0100
0010
0000
0000
1000
0001
0000
0000
,
1000
0000
0001
0000
0100
0000
0001
0000
1000
0001
0000
0000
1000
0010
0000
0000
,
0100
0000
0010
0000
1000
0000
0001
0000
0100
0001
0000
0000
1000
0001
0000
0000
,
1000
0100
0000
0000
0010
0100
0000
0000
1000
0000
0100
0000
0020
0000
0000
0000
,
0130
0000
1000
0000
0001
0000
0100
0000
0001
0100
0000
0000
0010
0100
0000
0000
,
0001
0000
1000
0000
0100
0000
0010
0000
0100
0010
0000
0000
0100
1000
0000
0000
,
0001
0000
0010
0000
0100
0000
1000
0000
0001
1000
0000
0000
0100
0010
0000
0000
,
0001
1000
0000
0000
0010
0100
0000
0000
0001
0000
0100
0000
0002
0000
0000
0000
,
0003
0000
0000
0000
;

//---------------dance-single - ----------------
#NOTES:
     dance-single:
     :
     Easy:
     1:
     0.149,0.200,0.040,0.121,0.000:
0010
0000
0010
0000
,
0010
0000
0000
0000
,
0100
0000
0000
0000
,
0010
0000
0100
0000
,
0010
0000
0100
0100
,
0100
0000
0000
0000
,
0001
0000
0000
0000
,
1000
0000
0001
0000
,
1000
0000
0001
0000
,
0020
0000
0000
0030
,
0200
0000
0000
0300
,
0002
0000
0000
0003
,
2000
0000
0000
3000
,
0010
0000
0000
2002
,
0000
0000
0000
0000
,
3003
0000
0100
0000
,
0010
0000
0100
0000
,
0000
0001
0001
0000
,
0000
1000
1000
0000
,
0010
0000
0100
0000
,
0010
0000
0100
0000
,
0020
0000
0000
0000
,
0230
0000
0000
0000
,
0302
0000
0000
0000
,
2003
0000
0000
3000
,
0010
0000
0010
0000
,
0010
0000
1010
0000
,
0100
0000
0000
0000
,
0100
0000
0000
0000
,
0001
0000
0001
0000
,
0001
0000
1001
0000
,
1000
0000
0000
0000
,
0010
0000
0000
0000
,
0100
0000
0100
0000
,
0200
0000
0310
0000
,
0001
0000
0000
0000
,
1000
0000
0000
0000
,
0001
0000
1000
0000
,
0020
0000
0130
0000
,
0100
0000
0010
0000
,
1001
0000
0000
0000
,
0100
0000
0000
0000
,
0010
0000
0000
0000
,
0100
0000
0010
0000
,
0100
0000
0010
0010
,
0010
0000
0000
0000
,
1000
0000
0000
0000
,
0001
0000
1000
0000
,
0001
0000
1000
0000
,
0100
0000
0000
0000
,
0010
0000
0000
0000
,
0001
0000
0010
0000
,
0001
0000
0010
0010
,
0010
0000
0000
0000
,
0100
0000
0000
0000
,
1000
0000
0100
0000
,
1000
0000
0100
0000
,
0001
0000
0000
0000
;
