#TITLE:Gods;
#SUBTITLE:(Vikas Music Eurobeat Remix);
#ARTIST:NewJeans;
#TITLETRANSLIT:;
#SUBTITLETRANSLIT:;
#ARTISTTRANSLIT:;
#CREDIT:;
#BANNER:Gods (Vikas Music Eurobeat Remix)-bn.png;
#BACKGROUND:Gods (Vikas Music Eurobeat Remix)-bg.png;
#LYRICSPATH:;
#CDTITLE:cd.png;
#MUSIC:Gods (Vikas Music Eurobeat Remix).mp3;
#OFFSET:-6.278;
#SAMPLESTART:42.590;
#SAMPLELENGTH:12.000;
#SELECTABLE:YES;
#BPMS:0.000=155.010;
#STOPS:;
#BGCHANGES:;

//---------------dance-single - ----------------
#NOTES:
     dance-single:
     :
     Hard:
     8:
     0.582,0.528,0.348,0.586,0.000:
2000
0000
3001
0000
1000
0020
0000
0030
,
0100
0001
1000
0010
0100
0010
1000
0001
,
0200
0000
0310
0000
1000
0200
0000
0000
,
0310
0010
0100
0100
1000
1000
0001
0001
,
2000
0000
3001
0000
0100
0020
0000
0000
,
1030
0001
1000
0010
0100
0001
0100
0010
,
2000
0000
3001
0000
1000
0200
0000
0000
,
1300
1000
0010
0010
0100
0100
0001
0001
,
2000
0000
3001
0000
1000
0001
0100
0001
,
1000
0000
0101
0000
0010
1000
0010
1000
,
0010
0000
1010
0000
0100
0010
0100
0000
,
0001
1000
0001
0000
1000
0010
0100
0001
,
1000
0000
1001
0000
0010
0100
0010
0100
,
0010
0000
0110
0000
1000
0001
1000
0001
,
1000
0000
1001
0000
0100
0010
0200
0000
,
0310
0100
0001
1000
0010
0000
2001
0000
,
3001
0000
0001
1000
0010
0100
0001
0000
,
0020
0130
0011
1100
,
0011
0000
1100
0000
0010
1000
0001
0100
,
0010
1000
0001
0010
1001
0000
0110
0000
,
1001
0000
0110
0000
0001
1000
0010
0000
,
0010
0100
0001
0000
0001
0100
0010
1000
,
0001
1000
0010
0000
0010
0100
0010
0000
,
0220
0000
0330
0000
0010
0100
0010
0000
,
2001
0000
3010
0000
0100
0010
1000
0000
,
1002
0000
0103
0000
0010
1000
0001
0100
,
0010
1000
0001
0000
0100
0010
1000
0000
,
1001
0000
0110
0000
0001
1000
0010
0000
,
1010
0000
1010
0000
0001
1000
0010
0000
,
0101
0000
0101
0000
0010
0100
0010
0000
,
0020
0130
0200
0310
,
2002
0000
3003
0000
0001
1000
0001
0000
,
2002
0000
3003
0000
0001
1000
0001
0000
,
0220
0000
0330
0000
0100
0001
0100
0000
,
0220
0330
2002
3003
,
2200
0000
3300
0000
0010
1000
0010
0000
,
1000
2000
3001
0002
,
1003
0001
1000
0001
,
2002
3003
0220
0330
,
2002
3003
0010
0010
,
0001
1000
0002
0000
1003
0010
2000
0000
,
3001
0100
0002
0000
0103
0010
2000
0000
,
3001
0100
0020
0000
1030
0001
1000
0000
,
1001
0110
1001
0011
,
0200
0000
0310
0000
0001
1000
0020
0000
,
0130
0001
2000
0000
3001
0010
0200
0000
,
1300
0001
2000
0000
3010
0100
0010
0000
,
2002
0003
0001
3001
,
0001
1000
0001
0000
0100
0010
0100
0000
,
0001
1000
0010
0000
0100
0001
0100
0000
,
0010
1000
0001
0100
0010
1000
0001
0000
,
0010
0100
1000
0010
0100
0001
1000
0000
,
0010
1000
0020
0000
0130
0001
0200
0000
,
0310
1000
0002
0000
0013
0100
1000
0000
,
0001
1000
0010
0100
0001
1000
0010
0000
,
2002
0003
0001
3001
,
0002
0000
1003
0000
0001
0200
0000
0300
,
0010
1000
0001
0100
0010
0100
0001
1000
,
0020
0000
0130
0000
0001
0020
0000
0000
,
0130
0100
0010
0010
0001
0001
1000
1000
,
0002
0000
1003
0000
0010
0200
0000
0000
,
0301
1000
0001
0100
0010
1000
0010
0100
,
0002
0000
1003
0000
0001
0020
0000
0000
,
0031
1000
0010
0000
0100
0001
2000
0000
,
3001
0000
0000
0000
;

//---------------dance-single - ----------------
#NOTES:
     dance-single:
     :
     Challenge:
     12:
     0.775,0.967,0.806,0.311,0.417:
0010
1000
0000
0000
0010
1000
0000
0000
0011
0000
1001
0000
0000
0000
0000
0000
,
0100
0000
0001
0000
0100
0000
0010
0000
1000
0000
1000
0010
0100
0001
0100
0001
,
2000
0000
0000
0000
3001
1000
0000
0000
1100
0000
0011
0000
0000
0000
0000
0000
,
0001
0000
0001
0000
1000
0000
1000
0000
0001
1000
0001
0000
0100
0010
0100
0000
,
0001
0010
0000
0000
0001
0010
0000
0000
1010
0000
1001
0000
0000
0000
0000
0000
,
0010
0000
1000
0000
0010
0000
0100
0000
0001
0000
0001
0100
0010
1000
0010
0100
,
0002
0000
0000
0000
1003
0001
0000
0000
0011
0000
1100
0000
0000
0000
0000
0000
,
1000
0000
1000
0000
0001
0000
0001
0000
1000
0001
0100
0000
0010
0100
0001
0000
,
2001
0000
3010
0000
0010
0100
0001
0010
,
1200
0000
1300
0000
0001
1000
0010
1000
,
2010
0000
0000
0000
3010
0000
0000
0000
0100
0000
0010
1000
0000
0000
0001
0000
,
1000
0001
1000
0000
1001
0000
0110
0000
,
1001
0000
1010
0000
0010
1000
0010
1000
,
1010
0000
0101
0000
0010
0100
0010
0100
,
0110
0000
1001
0000
0001
0010
0011
0000
,
1100
0000
0001
1000
0010
0000
0110
0000
,
1001
0000
0001
1000
0010
0100
0002
0000
,
0203
0310
1010
0101
,
0210
0000
0301
0000
0001
1000
0100
0010
,
0001
1000
0010
0000
0110
0000
1001
0000
,
0021
0000
0130
0000
1000
0100
0010
0100
,
1000
0001
0100
0010
0100
0001
1000
0001
,
1000
1000
0011
0000
0100
0100
1001
0000
,
1002
0000
2003
0000
3001
1000
0110
0000
,
2001
0000
3001
0000
0010
1000
0010
0000
,
0210
0000
0301
0000
0010
0100
0001
0100
,
0010
0100
0020
0000
0130
0001
0100
0000
,
0101
0000
1010
0000
0010
1000
0010
0000
,
1010
0000
0110
0000
0110
1001
0110
0000
,
0011
0000
1100
0000
1001
0110
1001
0000
,
0001
1000
1010
0000
0001
0100
0101
0000
,
0220
0000
0000
0330
0010
0100
0010
0000
,
0220
0000
0330
0000
0001
1000
0001
0000
,
2002
0000
3003
0000
0010
1000
0010
1000
,
0000
0010
0000
1001
0000
0110
0000
2002
,
0000
3003
0000
0000
1000
0010
0100
0000
,
0110
0000
0110
0000
0011
0011
0011
0000
,
1100
0000
1001
0000
0110
0000
1001
0011
,
0000
1100
0000
1001
0000
0110
0000
2002
,
0000
0000
3003
0000
0010
1000
0010
0000
,
1000
0001
1000
0001
0100
0010
0100
0001
,
1000
0000
0010
0000
0100
0000
0001
0000
1000
0000
0010
0000
1000
0001
1000
0010
,
1000
0001
0100
0010
1000
0001
0100
0010
,
1000
0001
0001
1000
0010
0100
1001
0000
,
0102
0000
1003
0000
0010
0100
0010
1000
,
0001
0000
0100
0000
0010
0000
1000
0000
0001
0000
0100
0000
0001
1000
0001
0100
,
0001
1000
0001
0100
0010
1000
0001
0010
,
2002
0000
3003
0000
0011
1100
1001
0110
,
1000
0010
1000
0010
0100
0010
0100
0010
0100
0001
0100
0001
1000
0010
1000
0010
,
0100
0001
0100
0001
1000
0010
1000
0010
0100
0010
0100
0010
1000
0001
1000
0001
,
0010
0001
0010
0001
1000
0100
1000
0100
1000
0001
1000
0001
0100
0010
0100
0010
,
1000
0001
1000
0001
0010
0001
0010
0001
0100
0010
0100
0010
1000
0001
1000
0001
,
0100
0010
1000
0001
0100
0001
1000
0001
1000
0100
0010
0001
0100
0001
1000
0001
,
0100
0010
1000
0001
1000
0010
1000
0001
0010
0100
1000
0001
0010
0100
1000
0001
,
0100
0010
0100
0001
1000
0100
0010
0001
1000
0010
0100
0001
1000
0010
0100
0001
,
0220
0000
0330
0000
0100
0100
1001
0000
,
0100
0001
0000
0000
0100
0001
0000
0000
1010
0000
1001
0000
0000
0000
0000
0000
,
0010
0000
1000
0000
0010
0000
0100
0000
0001
0000
0001
0100
0010
1000
0010
1000
,
0002
0000
0000
0000
1003
0001
0000
0000
0011
0000
1100
0000
0000
0000
0000
0000
,
1000
0000
1000
0000
0001
0000
0001
0000
1000
0001
1000
0000
0010
0100
0010
0000
,
1000
0100
0000
0000
1000
0100
0000
0000
0101
0000
1001
0000
0000
0000
0000
0000
,
0100
0000
0001
0000
0100
0000
0010
0000
1000
0000
1000
0010
0100
0001
0100
0010
,
2001
0000
0000
0000
3001
1000
0000
0000
0011
0000
1100
0000
0000
0000
0000
0000
,
1000
1000
0001
0001
2000
3020
0230
0300
,
1001
0000
0000
0000
;

//---------------dance-single - ----------------
#NOTES:
     dance-single:
     :
     Medium:
     6:
     0.425,0.498,0.376,0.403,0.000: // measure 1
1000
0000
0001
0000
1000
0010
0000
0000
,  // measure 2
1000
0010
0000
0010
0000
0010
0000
0000
,  // measure 3
0101
0000
1010
0000
0010
0100
0000
0000
,  // measure 4
0100
0010
0000
1010
0000
0101
0000
0000
,  // measure 5
0001
0000
1000
0000
0001
1000
0000
0000
,  // measure 6
0001
0100
0000
0100
0000
0100
0000
0000
,  // measure 7
1010
0000
0101
0000
0010
1000
0000
0000
,  // measure 8
0001
1000
0000
1001
0000
0110
0000
0000
,  // measure 9
0002
0000
1003
0000
0010
1000
0010
0000
,  // measure 10
0100
0000
0001
0000
0100
0001
1000
0010
,  // measure 11
1000
0001
1000
0010
,  // measure 12
1000
0001
1000
0000
0010
0000
0100
0000
,  // measure 13
1001
0000
0001
0000
0010
0001
0010
0000
,  // measure 14
0100
0000
1000
0000
0001
0000
0100
0010
,  // measure 15
0100
0110
0001
1000
,  // measure 16
0010
0000
1000
0010
1000
0000
0001
0000
,  // measure 17
0100
0000
0010
0100
0010
0000
1000
0000
,  // measure 18
0001
0010
1001
0110
,  // measure 19
2002
0000
3003
0000
0001
1000
0010
0000
,  // measure 20
0100
0010
0110
1001
,  // measure 21
0220
0330
1000
1000
,  // measure 22
0001
0001
1000
0020
,  // measure 23
0030
2000
3000
0002
,  // measure 24
0003
0000
1000
0000
0010
1000
0010
0000
,  // measure 25
1001
0000
0000
0000
0001
1000
0001
0000
,  // measure 26
1001
0000
1000
0010
,  // measure 27
0020
0000
0230
0000
,  // measure 28
0320
0000
0000
0000
1030
0001
1000
0000
,  // measure 29
0010
0010
0110
0110
,  // measure 30
0100
0100
0101
0101
,  // measure 31
2020
3030
0202
0303
,  // measure 32
2002
0000
3003
0000
0010
1000
0010
0000
,  // measure 33
2002
0000
3003
0000
0001
0010
0001
0000
,  // measure 34
2002
0000
3003
0000
0010
1000
0010
0000
,  // measure 35
2000
3000
0002
0003
,  // measure 36
2002
0000
3003
0000
1000
0001
1000
0000
,  // measure 37
0010
0000
0010
0000
0100
0100
0100
0000
,  // measure 38
0010
0010
0100
0100
,  // measure 39
0020
0000
0230
0000
,  // measure 40
0320
0000
1030
0001
,  // measure 41
2000
0000
3002
0000
,  // measure 42
2003
0000
3001
1000
,  // measure 43
0002
0000
2003
0000
,  // measure 44
3020
0030
1010
0101
,  // measure 45
2001
0000
3002
0000
,  // measure 46
2003
0000
3020
0000
,  // measure 47
0230
0000
0320
0000
,  // measure 48
2030
0000
3001
0001
,  // measure 49
0001
0001
1000
1000
,  // measure 50
0001
0100
1000
0100
,  // measure 51
0010
0001
0100
1000
,  // measure 52
0010
0100
0100
0010
,  // measure 53
0001
0001
1000
1000
,  // measure 54
0001
1000
0010
0100
,  // measure 55
0001
1000
0001
0000
1000
0001
1000
0000
,  // measure 56
2002
3003
1000
0000
,  // measure 57
0001
0000
1000
0000
0001
0100
0000
0000
,  // measure 58
0001
0100
0000
0100
0000
0100
0000
0000
,  // measure 59
1010
0000
0101
0000
0100
0010
0000
0000
,  // measure 60
0010
0100
0000
0101
0000
1010
0000
0000
,  // measure 61
1000
0000
0001
0000
1000
0001
0000
0000
,  // measure 62
1000
0010
0000
0010
0000
0010
0000
0000
,  // measure 63
0101
0000
1010
0000
0100
0001
0000
0000
,  // measure 64
1000
0001
0000
1001
0000
0110
0000
0000
,  // measure 65
2001
3000
0000
0000
0000
0000
0000
0000
0000
0000
0000
0000
0000
0000
0000
0000
0000
0000
0000
0000
0000
0000
0000
0000
0000
0000
0000
0000
0000
0000
0000
0000
0000
0000
0000
0000
0000
0000
0000
0000
0000
0000
0000
0000
0000
0000
0000
0000
0000
0000
0000
0000
0000
0000
0000
0000
0000
0000
0000
0000
0000
0000
0000
0000
0000
0000
0000
0000
0000
0000
0000
0000
0000
0000
0000
0000
0000
0000
0000
0000
0000
0000
0000
0000
0000
0000
0000
0000
0000
0000
0000
0000
0000
0000
0000
0000
0000
0000
0000
0000
0000
0000
0000
0000
0000
0000
0000
0000
0000
0000
0000
0000
0000
0000
0000
0000
0000
0000
0000
0000
0000
0000
0000
0000
0000
0000
0000
0000
0000
0000
0000
0000
0000
0000
0000
0000
0000
0000
0000
0000
0000
0000
0000
0000
0000
0000
0000
0000
0000
0000
0000
0000
0000
0000
0000
0000
0000
0000
0000
0000
0000
0000
0000
0000
0000
0000
0000
0000
0000
0000
0000
0000
0000
0000
0000
0000
0000
0000
0000
0000
0000
0000
0000
0000
0000
0000
0000
0000
0000
0000
0000
0000
;

//---------------dance-single - ----------------
#NOTES:
     dance-single:
     :
     Easy:
     3:
     0.309,0.381,0.156,0.513,0.000:
2000
3000
0002
0003
,
1000
0010
1000
0000
,
0002
0003
2000
3000
,
0001
1000
1001
0000
,
0200
0300
0020
0030
,
0100
0010
0100
0000
,
0020
0030
0200
0300
,
0001
1000
1001
0000
,
1000
0000
0001
0000
,
1000
0001
1000
0000
,
0010
0000
0100
0000
,
0010
0100
0010
0000
,
1001
0000
0001
0000
,
1000
0001
1000
0000
,
0001
0000
0100
0000
,
0010
1000
0100
0000
,
0010
0000
0010
0000
,
0001
0000
1000
1000
,
1001
0000
0001
0000
,
1000
0000
0010
1000
,
1001
0000
0002
0000
,
2003
0000
3020
0000
,
0230
0000
0320
0000
,
0230
0000
0310
0100
,
1001
0000
0001
1000
,
0110
0000
0001
0001
,
0002
0000
2003
0000
,
3020
0000
0130
0100
,
0010
0010
0100
0010
,
0100
0100
0010
0100
,
0020
0030
0200
0300
,
2002
3003
1000
0001
,
2002
3003
0010
0100
,
0220
0330
0100
0100
,
0200
0000
0320
0000
,
0230
0000
0301
0001
,
2000
0000
3002
0000
,
1003
0010
1000
0001
,
2000
3000
0002
0003
,
1001
0000
0001
0001
,
2000
3000
0002
0003
,
0200
0300
0020
0030
,
2000
3000
0002
0003
,
1001
0000
0001
0001
,
2000
3000
0002
0003
,
0020
0030
0200
0300
,
2000
3000
0020
0030
,
0110
0000
0001
0001
,
1000
0000
0001
0000
,
1000
0000
0001
0000
,
1000
0010
1000
0000
,
0001
0100
0001
0000
,
1000
1000
2000
3000
,
0001
0001
0002
0003
,
1000
0000
0001
0000
,
2002
0000
3003
0000
,
0002
0003
2000
3000
,
0001
0100
0001
0000
,
2000
3000
0002
0003
,
1000
0001
1001
0000
,
0020
0030
0200
0300
,
0010
0100
0010
0000
,
0200
0300
0020
0030
,
1000
0001
1001
0000
,
1001
0000
0000
0000
;
