#TITLE:Give A Little Love;
#SUBTITLE:;
#ARTIST:E-Rotic;
#TITLETRANSLIT:;
#SUBTITLETRANSLIT:;
#ARTISTTRANSLIT:;
#CREDIT:;
#BANNER:Give A Little Love-bn.PNG;
#BACKGROUND:Give A Little Love-bg.PNG;
#LYRICSPATH:;
#CDTITLE:cd.png;
#MUSIC:Give A Little Love.mp3;
#OFFSET:-10.159;
#SAMPLESTART:60.552;
#SAMPLELENGTH:12.000;
#SELECTABLE:YES;
#BPMS:0.000=98.020;
#STOPS:;
#BGCHANGES:;

//---------------dance-single - ----------------
#NOTES:
     dance-single:
     :
     Hard:
     8:
     0.534,0.483,0.226,0.085,0.546:
0010
0010
2000
0000
3001
0001
0200
0000
,
0310
0010
0200
0000
0301
0001
2000
0000
,
3100
0100
0020
0000
0031
0100
0100
0010
,
1000
0101
1001
1100
,
1001
0000
0000
0000
1000
0010
1000
0010
1000
0000
0010
1000
0000
0010
1000
0000
,
1001
0000
0000
0000
0001
0100
0001
0100
0001
0000
0100
0001
0000
0100
0001
0000
,
1001
0000
0000
0000
0010
0001
0010
0001
0010
0000
0001
0010
0000
0001
0010
0000
,
1001
0000
0000
0000
0100
1000
0100
1000
0100
0000
1000
0100
0000
1000
0100
0000
,
1001
0000
0001
0000
1000
0001
1000
0001
1000
0000
0001
1000
0000
0001
1000
0000
,
0110
0000
1000
0000
0001
0100
0001
0100
0001
0000
0100
0001
0000
0100
0001
0000
,
1010
0000
0001
0000
0100
0010
0100
0010
0100
0000
0010
0100
0000
0010
0100
0000
,
0101
0000
1000
0000
0010
1000
0010
1000
0010
0000
1000
0010
0000
1000
0010
0000
,
1001
0000
0010
1000
0010
0000
0100
0010
0100
0010
0100
0001
0100
0000
0010
0000
,
0100
0010
1000
0000
0001
0000
1000
0001
0010
0001
0010
0000
0100
0000
1000
0010
,
1000
0000
0001
0100
0001
0000
0100
0010
0100
0010
0100
0010
0100
0000
0010
1000
,
0010
0000
1000
0100
1000
0000
0100
1000
0010
1000
0010
0100
0010
0000
1000
0001
,
1000
0000
1000
0010
0100
0000
0001
0010
0100
0010
0100
0000
1000
0000
0100
1000
,
0100
1000
0100
1000
0001
0000
1000
0010
0100
0010
0100
0001
0100
0000
0010
0100
,
0010
0000
0100
0001
0100
0000
0001
0010
0100
0010
0100
0010
1000
0000
0100
0000
,
1000
0010
0100
0000
0010
0000
1000
0000
0100
1000
0100
1000
0100
0000
0010
0000
,
0002
0000
0000
1000
0000
0000
0013
0000
0000
0000
1001
0000
0110
0000
1001
0000
,
0100
1000
0100
1000
0100
0000
1000
0001
0000
0001
0010
0000
0100
0000
0010
0000
,
0001
0000
0010
0000
0001
0000
0010
0001
0000
0000
0011
0000
0100
0000
0010
0000
,
0001
0010
0001
0010
0001
0000
0100
0010
0000
0000
0100
0000
0010
0000
1000
0000
,
2000
0000
0001
0001
0001
0000
3100
1000
,
0001
1000
0001
1000
0001
0000
0100
0010
0000
0100
0001
0000
0100
0000
0010
0000
,
1000
0000
0010
0000
0100
0000
0001
0100
0000
0010
0100
0010
0100
0001
1000
0100
,
1000
0100
1000
0010
0100
0000
0001
1000
0000
0000
1000
0000
0001
0000
0010
0000
,
1001
0000
0010
0100
1001
0000
0110
0000
,
0100
0000
0001
0000
0100
0000
0001
0100
0000
0001
0000
0100
0010
0000
0100
0000
,
0000
0000
0001
0000
0010
0000
0001
0010
0000
0001
0000
0010
0100
0000
0010
0000
,
0000
0000
0001
0000
0100
0000
0001
0100
0000
0010
0000
0100
0001
0000
1000
0000
,
0001
1000
0001
1000
0001
0000
0100
0001
0000
0100
0001
0100
0001
0000
0100
0000
,
0010
0000
1000
0000
0010
0000
1000
0010
0000
1000
0000
0010
0100
0000
0010
0000
,
0101
0000
0001
0000
0010
0000
0001
0010
0000
0001
0000
0010
0100
0000
0010
0000
,
1001
0000
1000
0000
0010
0000
1000
0010
0000
0100
0000
0010
1000
0000
0001
0000
,
1000
0001
1000
0001
1000
0000
0010
1000
0000
0010
1000
0010
1000
0000
0010
0000
,
2002
0000
0000
0000
0000
0000
3003
0110
,
1001
0000
0000
0000
;

//---------------dance-single - ----------------
#NOTES:
     dance-single:
     :
     Medium:
     5:
     0.323,0.322,0.198,0.198,0.000: // measure 1
0010
0010
0010
0000
0100
0100
0100
0000
,  // measure 2
0001
0001
0001
0000
1000
1000
1000
0000
,  // measure 3
0010
1000
0010
0000
0100
0001
0100
0000
,  // measure 4
0101
0000
0100
0100
,  // measure 5
0010
0000
1000
0010
1000
0000
0001
0000
,  // measure 6
0020
0000
0031
0100
0001
0000
1000
0000
,  // measure 7
0020
0000
1030
0010
1000
0000
0001
0000
,  // measure 8
0200
0000
0310
1000
0001
0000
0010
0000
,  // measure 9
0002
0000
0013
0001
0010
0000
0100
0000
,  // measure 10
1001
0000
0001
1000
0001
0000
0010
0000
,  // measure 11
0101
0000
0001
0010
0001
0000
0100
0000
,  // measure 12
1100
0000
0001
1000
0001
0000
0010
0000
,  // measure 13
1001
0000
0110
0000
0010
0010
0010
0000
,  // measure 14
0100
0100
0100
0000
0010
0100
0010
0000
,  // measure 15
1001
0000
0110
0000
1010
1010
0101
0000
,  // measure 16
0001
1000
0001
1000
0001
0010
0001
0000
,  // measure 17
1000
1010
0001
0101
,  // measure 18
0001
1000
0001
0000
0010
0001
0010
0000
,  // measure 19
0100
1100
1001
0101
,  // measure 20
1000
0001
1000
0000
0001
0010
0100
0000
,  // measure 21
2000
0000
0000
0000
0000
0010
0010
3010
,  // measure 22
0010
0000
0100
0000
0010
0000
0100
0010
,  // measure 23
0100
0000
0001
0000
1001
0000
1000
0010
,  // measure 24
1000
0000
0020
0030
0200
0300
0010
0100
,  // measure 25
0002
0003
0010
0100
1000
0000
1001
0000
,  // measure 26
0001
0001
0001
0000
1000
1000
1000
0000
,  // measure 27
0001
1000
0001
1000
0001
0000
0010
0000
,  // measure 28
0100
1000
0001
0000
0001
1000
0010
0100
,  // measure 29
0002
0003
1000
0001
1001
0000
1001
0000
,  // measure 30
1010
0000
0010
1000
0010
0000
0100
0010
,  // measure 31
0100
0000
0001
1000
0001
0000
1000
0001
,  // measure 32
0010
0000
0010
0001
0010
0000
0010
0001
,  // measure 33
2000
3020
0230
0302
,  // measure 34
2003
0000
3010
1000
0010
0000
0100
0010
,  // measure 35
0200
0300
0001
0010
0001
0000
0010
0100
,  // measure 36
2000
0000
3001
1000
0001
0000
1000
0010
,  // measure 37
0200
0000
0302
0000
0023
0000
0230
0300
,  // measure 38
2000
0000
0000
0000
,  // measure 39
3001
0000
0000
0000
;

//---------------dance-single - ----------------
#NOTES:
     dance-single:
     :
     Easy:
     3:
     0.244,0.286,0.273,0.038,0.000: // measure 1
0010
0000
0010
0000
,  // measure 2
0010
0000
0010
0000
,  // measure 3
0100
0000
0100
0000
,  // measure 4
1001
0000
0000
0000
,  // measure 5
1000
0001
1000
0001
,  // measure 6
1000
0010
0100
0010
,  // measure 7
0100
0001
1000
0001
,  // measure 8
1000
0010
0100
0001
,  // measure 9
0011
0100
1000
0001
,  // measure 10
1001
0010
0100
0001
,  // measure 11
1001
1000
0010
1000
,  // measure 12
1001
0010
0001
0100
,  // measure 13
0010
0000
1001
0000
0001
0001
1001
0000
,  // measure 14
1000
1000
0010
0000
0010
0010
0010
0000
,  // measure 15
0100
0110
0100
1001
,  // measure 16
0001
0001
0001
0000
1000
1000
1000
0000
,  // measure 17
0010
0110
1001
0110
,  // measure 18
0100
0100
0010
0010
,  // measure 19
1010
0101
1001
1001
,  // measure 20
0001
0001
0001
0000
1000
1000
1000
0000
,  // measure 21
0000
0000
0000
0000
0000
0100
0100
0100
,  // measure 22
0010
0100
0010
1000
,  // measure 23
0001
1000
0001
0000
,  // measure 24
1000
0010
0100
0001
,  // measure 25
0021
0000
0030
0001
1000
0000
1010
0000
,  // measure 26
1010
0101
1010
0101
,  // measure 27
0100
0000
0100
0010
1001
0000
0010
0010
,  // measure 28
0010
0000
0100
0000
0001
0000
1000
0001
,  // measure 29
1002
0000
0003
1000
0010
0000
1010
0000
,  // measure 30
1000
0001
1000
0001
,  // measure 31
1000
0100
0010
0001
,  // measure 32
0100
0010
0100
0010
,  // measure 33
0110
0000
0010
0010
,  // measure 34
1001
1000
0001
1000
,  // measure 35
0110
0010
0100
0010
,  // measure 36
1010
0001
1000
0001
,  // measure 37
0020
0001
0001
0031
,  // measure 38
2000
0000
0000
0000
,  // measure 39
3001
0000
0000
0000
;
