#TITLE:Get Busy;
#SUBTITLE:;
#ARTIST:The Rapido's;
#TITLETRANSLIT:;
#SUBTITLETRANSLIT:;
#ARTISTTRANSLIT:;
#CREDIT:;
#BANNER:Get Busy-bn.png;
#BACKGROUND:Get Busy-bg.png;
#LYRICSPATH:;
#CDTITLE:Ketteiban!! Mega Dance 1.png;
#MUSIC:Get Busy.ogg;
#OFFSET:-5.675;
#SAMPLESTART:60.964;
#SAMPLELENGTH:12.000;
#SELECTABLE:YES;
#DISPLAYBPM:170.000;
#BPMS:0.000=169.950;
#STOPS:220.000=1.059
;
#BGCHANGES:;

//---------------dance-single - ----------------
#NOTES:
     dance-single:
     :
     Hard:
     9:
     0.715,0.675,0.450,0.360,0.400:
2001
0000
0000
0000
,
0020
0000
0000
3030
,
0001
0000
1000
0000
0000
0010
0000
0000
0210
0000
0000
0010
0000
0000
0310
0000
,
0000
0000
1000
0000
0000
1000
0000
0000
1200
0000
0000
1000
0000
0000
1300
0000
,
0000
0000
0001
0000
0000
0001
0000
0000
2001
0000
0000
0001
0000
0000
3001
0000
,
0000
0000
0100
0000
0000
0100
0000
0000
0102
0000
0000
0100
0000
0000
0103
0000
,
0000
0000
1000
0000
0000
1000
0000
0000
1020
0000
0000
1000
0000
0000
1030
0000
,
0000
0000
0001
0000
0000
0001
0000
0000
2001
0000
0000
0001
0000
0000
3001
0000
,
0000
0000
0100
0000
0000
0100
0000
0000
0120
0000
0000
0100
0000
0000
0130
0000
,
0000
0000
1000
0000
0000
1000
0000
0000
1002
0000
0000
1000
0000
0000
1003
0000
,
0001
0010
0100
1000
0010
0001
0010
0000
,
1000
0001
0020
0000
0031
0100
0002
0000
,
1003
0100
1000
0010
1000
0100
0010
0100
,
1000
0001
2000
0000
3001
0100
0020
0000
,
1030
0001
0010
0001
0100
0001
1000
0001
,
0100
0010
2000
0000
3010
1000
0002
0000
,
1003
0001
0100
0010
1000
0010
1000
0100
,
0010
0001
0100
0001
0010
0001
0100
0000
,
1001
0110
1001
0110
,
1000
0000
0010
0000
1000
0000
0010
0000
0100
0000
0001
0100
0000
0000
0010
0000
,
1000
0010
0200
0000
0310
0001
0010
0100
,
0002
0023
0230
2300
,
3010
0110
1001
0110
,
1001
0001
1000
0100
1000
0010
0100
0001
,
1000
0100
0010
0001
1000
0010
0100
0001
,
1001
1000
0010
1000
0001
0100
0010
1000
,
0010
1000
0100
0010
0001
0010
0001
0010
,
0110
0100
1000
0100
0010
0001
0100
0001
,
0010
0100
0010
0001
1000
0010
0100
0001
,
1001
1000
0001
0100
0001
0010
0100
0010
,
0100
0000
1000
0000
0001
0000
0010
0000
0001
0000
1000
0001
0000
0000
0000
0000
,
0000
0000
2000
0000
0000
0010
0000
0000
3100
0000
1000
0010
0000
0100
0001
0000
,
0000
0000
2000
0000
0000
0001
0000
0000
3001
0000
0100
0001
0000
0100
0001
0000
,
0000
0000
0200
0000
0000
0010
0000
0000
0310
0000
0100
0001
0000
0100
0001
0000
,
0000
0000
0200
0000
0000
0001
0000
0000
0301
0000
1000
0001
0000
1000
0001
0000
,
0000
0000
2000
0000
0000
0100
0000
0000
3100
0000
1000
0010
0000
0100
0001
0000
,
0000
0000
0200
0000
0000
0001
0000
0000
0301
0000
0100
0001
0000
0100
0001
0000
,
0000
0000
0200
0000
0000
0010
0000
0000
0301
0000
1000
0010
0000
1000
0100
0000
,
0000
0000
2000
0000
0000
0001
0000
0000
3001
0000
1000
0001
0000
1000
0001
0000
,
0100
0000
0000
0001
0000
0000
1100
0000
0000
1100
0000
0000
0100
1000
0100
1000
,
0100
0000
0000
1000
0000
0000
0101
0000
0000
0110
0000
0000
1000
0010
1000
0010
,
1000
0000
0000
0010
0000
0000
0101
0000
0000
1001
0000
0000
0010
0001
0010
0001
,
0010
0000
0000
0001
0000
0000
1001
0000
0000
0000
0100
0000
0010
0000
0100
0000
,
1001
0000
0001
1010
0000
1000
0001
1000
,
0100
0000
1000
0101
0000
0010
0100
1000
,
0100
0000
0001
0011
0000
1000
0100
0001
,
0100
0000
0010
0110
0000
1000
0001
1000
,
0001
0000
0000
0010
0000
0000
0011
0000
0000
0100
0000
0000
1000
0100
1000
0100
,
1000
0000
0000
0100
0000
0000
1001
0000
0000
0010
0000
0000
0100
0010
0100
0010
,
0100
0000
0000
0010
0000
0000
1001
0000
0000
1000
0000
0000
0100
1000
0100
1000
,
0100
0000
0000
1000
0000
0000
0110
0000
0000
0000
0001
0000
0010
0000
0100
0000
,
1000
0000
1000
1001
0000
0001
1000
0010
,
0100
0000
0010
1001
0000
0100
0001
0010
,
0001
0000
1000
1100
0000
0010
0001
1000
,
0100
0000
0100
0110
0000
1000
0010
0100
,
2002
3003
0000
0000
0000
0000
0000
0000
0010
0000
0000
0000
1000
0000
0000
0000
0001
0000
0000
0000
0010
0000
0000
0000
0100
0000
0000
0000
1000
0000
0000
0000
,
0010
0100
0001
0010
0001
1000
0010
0100
,
0010
1000
1001
0001
0100
0001
0010
0001
,
0100
0001
0010
0001
0010
0001
1000
0010
,
0100
0010
0110
1000
0001
0010
0100
1000
,
0001
1000
0010
1000
0001
0100
0001
0010
,
0001
1000
1010
0010
1000
0001
1000
0010
,
1000
0000
0001
0000
1000
0000
0100
0000
0010
0000
0001
0000
1000
0000
0001
1000
,
0000
0000
0000
0000
0000
0000
2001
0000
0000
0010
0000
0000
3100
0000
0000
0010
,
0000
0000
0010
0000
0000
0000
2100
0000
0000
0001
0000
0000
3001
0000
0000
0100
,
0000
0000
0001
0000
0000
0000
0201
0000
0000
0010
0000
0000
1300
0000
0000
0010
,
0000
0000
0010
0000
0000
0000
0201
0000
0000
0001
0000
0000
0301
0000
0000
0001
,
0000
0000
0100
0000
0000
0000
0002
0000
0000
0010
0000
0000
0103
0000
0010
0100
,
0000
0010
0100
0000
0000
0000
0201
0000
0000
0010
0000
0000
0310
0000
1000
0100
,
0000
1000
0100
0000
0000
0000
2001
0000
0000
0100
0000
0000
3001
0000
1000
0001
,
0000
1000
0001
0000
0000
0000
0200
0000
0000
0001
0000
0000
0301
0000
0100
0010
,
0000
0100
0010
0000
2000
0000
0000
0000
3000
0000
0000
0000
0000
0000
0000
0000
;

//---------------dance-single - ----------------
#NOTES:
     dance-single:
     :
     Challenge:
     11:
     1.000,0.997,1.000,0.126,0.972:
2001
0000
0000
0000
,
0002
0000
0000
3003
,
0000
0000
1001
0000
0010
1000
0000
0001
1000
0000
0010
0100
0000
0010
1000
0000
,
0000
0000
1001
0000
0100
0001
0000
1000
0001
0000
0100
0001
0000
0100
0011
0000
,
0000
0000
0001
0000
0010
0001
0000
1000
0001
0000
0010
1100
0000
0010
1100
0000
,
0000
0000
1010
0000
1000
0100
0000
0010
0001
0000
0010
1001
0000
0100
1001
0000
,
0000
0000
1000
0000
0010
0101
0000
0010
0101
0000
1000
0101
0000
0001
1010
0000
,
0000
0000
0110
0000
1000
0101
0000
0100
1010
0000
0100
1010
0000
0010
1100
0000
,
0000
0000
0001
0000
0010
1100
0000
0100
1010
0000
0010
0101
0000
1000
0101
0000
,
0000
0000
1100
0000
0001
0110
0000
1000
0110
0000
0001
1100
0000
0100
1010
0000
,
0101
0000
1000
0010
0000
0100
0010
0100
1001
0000
0100
0010
0000
1000
0001
1000
,
0101
0000
0100
0010
0000
0010
1000
0010
0101
0000
0010
1001
0000
0000
0100
0000
,
1000
0100
0010
0000
0101
0000
1000
0000
0100
0000
0010
0100
0000
1000
0001
0100
,
0010
0000
1000
0101
0000
0000
0010
0000
1000
0000
0010
0001
0000
0000
0000
0000
,
0100
0001
0100
0001
1000
0000
0001
0000
1010
0000
0100
0010
0000
0000
0100
0010
,
1000
0000
1000
0010
0000
0000
0100
0000
0010
0000
0001
0000
0110
0000
0000
0000
,
1001
0000
0010
0000
1100
0000
0001
0010
0100
0000
1000
0010
0000
0000
0010
0100
,
1000
0000
0001
0100
0000
0000
1000
0000
0101
0000
0010
0100
0000
0000
0010
0000
,
0101
0000
0100
0011
0000
0000
1000
0100
1000
0000
0001
0110
0000
0000
1000
0000
,
0011
0000
1100
0000
1001
0000
1001
0000
1010
0000
0100
0011
0000
0000
1010
0000
,
0110
0000
0001
1100
0000
0000
0101
0000
1010
0000
0010
0101
0000
0000
0010
0000
,
0202
0303
2020
3030
0202
0303
0220
0330
,
1001
0000
0110
0000
1001
0000
0110
0001
,
1001
0100
0001
0010
1000
0001
0100
1000
,
0001
1000
0010
0001
0100
0010
0001
1000
0100
0000
1000
0100
0000
0000
0100
1000
,
0011
0000
0100
0000
1000
0100
0001
0000
0010
1000
0100
0010
0001
0001
0100
0010
,
1000
0100
0001
1000
0010
0001
0100
0010
0100
0000
0100
0010
0000
0100
0010
0001
,
1010
0000
0100
0000
0001
1000
0010
0000
1000
0000
0100
0010
0001
0000
0010
0000
,
0100
0010
0001
1000
0100
0010
1000
0100
0001
1000
0010
0001
0100
1000
0010
1000
,
0110
0001
0100
1000
0001
0010
0100
0001
,
0100
0010
1000
0100
0001
1000
0010
0001
0100
0000
0001
0010
0000
0000
0000
0000
,
0000
0000
0001
0000
1000
0110
0000
1000
0101
0000
0001
1100
0000
1000
0110
0000
,
0000
0000
0011
0000
1000
0101
0000
1000
0101
0000
0100
1001
0000
0100
1010
0000
,
0000
0000
0100
0000
0001
1100
0000
1000
0101
0000
0100
1010
0000
0100
1001
0000
,
0000
0000
0110
0000
0001
0110
0000
0001
0110
0000
0010
1100
0000
0001
0110
0000
,
0000
0000
1000
0000
0010
1100
0000
1000
0110
0000
1000
0110
0000
1000
0101
0000
,
0000
0000
0011
0000
0001
1100
0000
1000
0101
0000
0010
1100
0000
1000
0011
0000
,
0000
0000
0100
0000
0100
0011
0000
1000
0101
0000
0010
0101
0000
1000
0101
0000
,
0000
0000
1100
0000
0010
0101
0000
1000
0101
0000
0001
1010
0000
1000
0110
0000
,
1010
0000
0000
0110
0000
0000
0011
0000
0000
0110
0000
0000
1010
0001
1010
0001
,
1010
0000
0000
0110
0000
0000
1001
0000
0000
1010
0000
0000
1100
0010
1100
0010
,
1100
0000
0000
0110
0000
0000
1001
0000
0000
0110
0000
0000
0011
1000
0011
1000
,
0011
0000
0000
0101
0000
0000
0110
0000
0000
0000
1000
0000
0101
0000
0010
0000
,
1001
0000
0101
0110
0000
0110
1001
0110
,
1100
0000
0101
1001
0000
0110
1001
0101
,
1010
0000
1001
0011
0000
0110
1100
0101
,
1010
0000
0011
0110
0000
1001
0110
1000
,
0110
0000
0000
0101
0000
0000
1100
0000
0000
0101
0000
0000
0110
1000
0110
1000
,
0110
0000
0000
0101
0000
0000
1010
0000
0000
0110
0000
0000
0011
0100
0011
0100
,
0011
0000
0000
0101
0000
0000
1010
0000
0000
0101
0000
0000
1100
0010
1100
0010
,
1100
0000
0000
1001
0000
0000
0101
0000
0000
0000
0010
0000
1001
0000
0100
0000
,
1010
0000
1001
0101
0000
0101
1010
0101
,
0011
0000
1001
1010
0000
0101
1010
1001
,
0110
0000
1010
1100
0000
0101
0011
1001
,
0110
0000
1100
0101
0000
1010
0101
0010
,
2002
3003
0000
0000
0000
0000
0000
0000
0100
0000
0000
0000
0000
0000
0000
0000
1001
0000
0000
0000
0000
0000
0000
0000
0010
0000
0000
0000
0000
0000
0000
0000
0100
0000
0000
0000
0000
0000
0000
0000
0010
0000
0000
0000
0000
0000
0000
0000
0100
0000
0000
0000
0000
0000
0000
0000
1000
0000
0000
0000
0001
0000
0000
0000
,
1000
0000
0010
0000
1000
0000
0100
0000
0001
0100
1000
0000
0001
0000
0010
0001
,
0000
0000
0010
0000
1100
0000
0001
0000
0010
0001
1000
0000
0100
0010
0001
0100
,
1000
0010
0001
0100
0010
0001
1000
0010
0100
1000
0001
0100
1000
0100
0001
1000
,
0000
0000
0100
0000
0110
0000
0001
0000
1000
0010
0100
0000
0010
0000
0001
0100
,
1000
0000
0100
0000
0001
0100
1000
0010
0001
0100
0010
0001
1000
0010
0100
1000
,
0001
0010
0100
0010
0101
0000
1000
0000
0001
0000
0010
0000
1000
0000
0100
0000
,
0001
0000
1000
0000
0001
0100
0010
0001
1000
0010
0100
1000
0001
0000
0100
1001
,
0000
0000
0000
0000
0000
0000
1000
0000
0001
0110
0000
0001
1010
0000
0001
1010
,
0000
0010
0101
0000
0000
0000
1100
0000
0010
1001
0000
0010
1001
0000
0001
1010
,
0000
0001
0110
0000
0000
0000
0001
0000
1000
0011
0000
0001
0110
0000
1000
0110
,
0000
0001
1010
0000
0000
0000
0101
0000
0010
0101
0000
1000
0101
0000
0100
0011
,
0000
1000
0110
0000
0000
0000
0010
0000
0100
0011
0000
1000
0101
0000
0010
0101
,
0000
0010
1001
0000
0000
0000
1100
0000
1000
0011
0000
0001
1010
0000
0100
0011
,
0000
0001
1010
0000
0000
0000
0001
0000
0010
1100
0000
0001
1010
0000
0100
1001
,
0000
0100
0011
0000
0000
0000
0011
0000
0100
1001
0000
0001
1010
0000
1000
0110
,
0000
0100
0011
0000
2002
0000
0000
0000
3003
0000
0000
0000
0000
0000
0000
0000
;

//---------------dance-single - ----------------
#NOTES:
     dance-single:
     :
     Medium:
     7:
     0.590,0.547,0.279,0.189,0.279: // measure 1
2002
0000
0003
0000
,  // measure 2
0020
0000
0000
3030
,  // measure 3
0000
0000
1000
0000
0000
1000
0000
0000
0010
0000
0000
0010
0000
0000
0020
0000
,  // measure 4
0000
0000
0130
0000
0000
0100
0000
0000
0001
0000
0000
0001
0000
0000
0002
0000
,  // measure 5
0000
0000
1003
0000
0000
1000
0000
0000
0100
0000
0000
0100
0000
0000
0200
0000
,  // measure 6
0000
0000
1300
0000
0000
1000
0000
0000
0001
0000
0000
0001
0000
0000
0002
0000
,  // measure 7
0000
0000
0013
0000
0000
0010
0000
0000
0001
0000
0000
0001
0000
0000
0002
0000
,  // measure 8
0000
0000
0103
0000
0000
0100
0000
0000
0010
0000
0000
0010
0000
0000
0020
0000
,  // measure 9
0000
0000
0130
0000
0000
0100
0000
0000
0001
0000
0000
0001
0000
0000
0002
0000
,  // measure 10
0000
0000
1003
0000
0000
1000
0000
0000
0100
0000
0000
0010
0000
0000
0001
0000
,  // measure 11
0001
0000
1000
0000
0001
0100
0010
0000
,  // measure 12
1000
0010
1000
0000
0001
0100
0001
0000
,  // measure 13
0001
0000
0100
0000
0001
0010
0100
0000
,  // measure 14
1000
0100
1000
0000
0100
1000
0010
0000
,  // measure 15
0100
0000
1001
0000
0001
1000
0010
0000
,  // measure 16
0010
0100
0001
0000
0001
0100
1000
0000
,  // measure 17
0010
0001
1000
0000
0100
0000
1000
0000
,  // measure 18
0001
1000
0001
0000
0010
0100
0010
0000
,  // measure 19
0101
1100
1010
1100
,  // measure 20
0001
1000
0001
1000
0001
1000
0001
0000
,  // measure 21
0001
0010
0100
1000
,  // measure 22
1001
1010
1100
1001
,  // measure 23
1001
0110
1001
0110
,  // measure 24
0100
0001
0100
0010
1000
0001
0010
0100
,  // measure 25
1000
0010
1000
0001
1000
0010
1000
0000
,  // measure 26
0100
1000
0010
0100
0001
0010
0001
1000
,  // measure 27
0001
0010
0100
0010
0001
0010
0001
0000
,  // measure 28
0100
0010
0100
0001
0010
0100
1000
0010
,  // measure 29
1000
0001
0100
0010
0100
0001
0010
0000
,  // measure 30
0001
0010
0100
1000
0010
0100
0001
1000
,  // measure 31
0001
1000
0010
0100
0010
1000
0010
0000
,  // measure 32
0000
0000
1000
0000
0000
1000
0000
0000
0001
0000
0000
1000
0000
0000
1001
0000
,  // measure 33
0000
0000
0010
0000
0000
0010
0000
0000
0100
0000
0000
0010
0000
0000
0110
0000
,  // measure 34
0000
0000
0001
0000
0000
0010
0000
0000
0001
0000
0000
0010
0000
0000
0011
0000
,  // measure 35
0000
0000
0100
0000
0000
1000
0000
0000
0100
0000
0000
0100
0000
0000
1100
0000
,  // measure 36
0000
0000
0010
0000
0000
1000
0000
0000
0101
0000
0000
1000
0000
0000
0001
0000
,  // measure 37
0000
0000
0010
0000
0000
1000
0000
0000
0001
0000
0000
0100
0000
0000
0101
0000
,  // measure 38
0000
0000
0010
0000
0000
0100
0000
0000
0010
0000
0000
0100
0000
0000
0110
0000
,  // measure 39
0000
0000
0001
0000
0000
0010
0000
0000
0100
0000
0000
1000
0000
0000
0100
0000
,  // measure 40
1000
0000
0000
1000
0000
0000
0100
0000
0000
0010
0000
0000
0001
0000
0001
0000
,  // measure 41
0001
0000
0000
0010
0000
0000
0100
0000
0000
1000
0000
0000
0010
0000
0010
0000
,  // measure 42
0010
0000
0000
1000
0000
0000
0100
0000
0000
0010
0000
0000
0001
0000
0001
0000
,  // measure 43
0001
0000
0000
0010
0000
0000
0100
0000
0000
0000
1000
0000
0010
0000
1000
0000
,  // measure 44
0010
0000
1000
0010
0000
0100
0001
0010
,  // measure 45
0001
0000
0010
0100
0000
1000
0010
1000
,  // measure 46
0010
0000
0100
0001
0000
0100
0010
1000
,  // measure 47
0100
0000
0010
0001
0000
0100
0010
1000
,  // measure 48
0001
0000
0000
0001
0000
0000
0010
0000
0000
0100
0000
0000
1000
0000
1000
0000
,  // measure 49
1000
0000
0000
0100
0000
0000
0010
0000
0000
0001
0000
0000
0001
0000
0001
0000
,  // measure 50
0001
0000
0000
0001
0000
0000
0100
0000
0000
0010
0000
0000
1000
0000
1000
0000
,  // measure 51
1000
0000
0000
0010
0000
0000
1001
0000
0000
0000
0010
0000
0100
0000
0010
0000
,  // measure 52
1000
0000
0010
1000
0000
0001
0100
0001
,  // measure 53
1000
0000
0001
1000
0000
0010
0100
0001
,  // measure 54
0010
0000
0001
0010
0000
0001
1000
0100
,  // measure 55
1000
0000
0010
1000
0000
0001
0010
0100
,  // measure 56
2002
3003
0000
0000
0000
0000
0000
0000
0000
0000
0000
0000
0000
0000
0000
0000
0100
0000
0000
0000
0000
0000
0000
0000
0010
0000
0000
0000
0000
0000
0000
0000
1000
0000
0000
0000
0000
0000
0000
0000
0001
0000
0000
0000
0000
0000
0000
0000
1000
0000
0000
0000
0000
0000
0000
0000
0010
0000
0000
0000
0000
0000
0000
0000
,  // measure 57
0100
0001
0010
0100
1000
0010
1000
0001
,  // measure 58
1000
0000
0001
0010
0100
1000
0001
1000
,  // measure 59
0010
0100
0001
1000
0010
1000
0001
1000
,  // measure 60
0100
0000
1000
0100
0010
0001
0010
0100
,  // measure 61
0010
0001
0010
0100
1000
0010
1000
0001
,  // measure 62
1000
0000
0001
0010
0100
1000
0001
1000
,  // measure 63
0010
0100
0001
0010
0100
1000
0010
1000
,  // measure 64
0100
0000
0000
0000
0000
0000
0100
0000
0000
0100
0000
0000
1000
0000
0000
1000
,  // measure 65
0000
0000
2001
0000
0000
0000
3001
0000
0000
0001
0000
0000
0010
0000
0000
0010
,  // measure 66
0000
0000
0012
0000
0000
0000
0103
0000
0000
0100
0000
0000
0001
0000
0000
0001
,  // measure 67
0000
0000
0102
0000
0000
0000
0103
0000
0000
0100
0000
0000
0010
0000
0000
0010
,  // measure 68
0000
0000
1020
0000
0000
0000
1030
0000
0000
1000
0000
0000
0010
0000
0000
0010
,  // measure 69
0000
0000
1002
0000
0000
0000
1003
0000
0000
0001
0000
0000
1000
0000
0000
1000
,  // measure 70
0000
0000
2010
0000
0000
0000
3001
0000
0000
0001
0000
0000
0010
0000
0000
0010
,  // measure 71
0000
0000
0021
0000
0000
0000
0130
0000
0000
0100
0000
0000
1000
0000
0000
0001
,  // measure 72
0000
0100
0220
0000
0330
0000
0000
0000
;

//---------------dance-single - ----------------
#NOTES:
     dance-single:
     :
     Easy:
     4:
     0.404,0.515,0.432,0.459,0.000: // measure 1
2002
0000
0000
0000
,  // measure 2
3003
0000
0000
0000
,  // measure 3
1001
0000
0010
0001
,  // measure 4
0200
0000
0301
0010
,  // measure 5
0002
0000
0103
0010
,  // measure 6
0020
0000
0130
0001
,  // measure 7
0200
0000
0301
0010
,  // measure 8
0200
0000
1300
0001
,  // measure 9
0002
0000
0013
0100
,  // measure 10
2000
0000
3001
0010
,  // measure 11
1001
0000
1001
0000
,  // measure 12
0200
0300
0020
0030
,  // measure 13
0011
0000
0011
0000
,  // measure 14
0200
0300
2000
3000
,  // measure 15
0001
0001
1000
1000
,  // measure 16
0010
0100
0001
1000
,  // measure 17
0100
1000
0010
0100
,  // measure 18
2002
3003
0220
0330
,  // measure 19
0001
0001
1000
0010
,  // measure 20
0100
0100
1001
0000
,  // measure 21
0220
0330
2002
3003
,  // measure 22
1100
1100
1100
0000
,  // measure 23
1001
1001
1001
1001
,  // measure 24
0001
0001
0010
0100
,  // measure 25
1000
0001
0010
0100
,  // measure 26
1000
0100
1000
0001
,  // measure 27
0010
0100
1000
0100
,  // measure 28
1001
0100
0001
0100
,  // measure 29
0010
1000
0001
0010
,  // measure 30
0100
1000
0001
0010
,  // measure 31
0001
1000
0100
1000
,  // measure 32
0020
0000
1030
0001
,  // measure 33
0200
0000
0301
0010
,  // measure 34
0002
0000
1003
0001
,  // measure 35
2000
0000
3001
1000
,  // measure 36
0020
0000
0130
0001
,  // measure 37
0200
0000
0301
1000
,  // measure 38
2000
0000
3001
0010
,  // measure 39
0002
0000
0103
0001
,  // measure 40
0200
0300
1001
0100
,  // measure 41
0020
0030
1001
0100
,  // measure 42
0020
0030
0010
0001
,  // measure 43
0200
0300
0010
0000
,  // measure 44
1001
0000
1001
0000
,  // measure 45
1001
0000
1001
0000
,  // measure 46
1001
0000
1001
0000
,  // measure 47
1001
0000
1001
0000
,  // measure 48
1001
0000
0100
0010
,  // measure 49
1001
0000
0100
0001
,  // measure 50
1010
0000
0100
0001
,  // measure 51
1001
0000
0010
0100
,  // measure 52
1001
0000
0011
0000
,  // measure 53
1100
0000
1001
0000
,  // measure 54
0002
0000
1003
0000
,  // measure 55
0020
0000
0130
0000
,  // measure 56
2002
3003
0000
0000
0000
0000
0000
0000
0000
0000
0000
0000
0000
0000
0000
0000
0100
0000
0000
0000
0000
0000
0000
0000
0000
0000
0000
0000
0000
0000
0000
0000
0100
0000
0000
0000
0000
0000
0000
0000
0000
0000
0000
0000
0000
0000
0000
0000
0010
0000
0000
0000
0000
0000
0000
0000
0000
0000
0000
0000
0000
0000
0000
0000
,  // measure 57
1000
0100
1000
0001
,  // measure 58
0010
0001
1000
0010
,  // measure 59
0100
0001
0010
1000
,  // measure 60
0010
1001
0010
0100
,  // measure 61
0001
0010
0001
0100
,  // measure 62
0010
1000
0100
0010
,  // measure 63
0100
1000
0100
0010
,  // measure 64
0000
2001
0000
3100
,  // measure 65
0001
1002
0000
0013
,  // measure 66
0100
0210
0000
1300
,  // measure 67
0100
2100
0000
3001
,  // measure 68
0010
2200
0300
3001
,  // measure 69
0010
0022
0030
0013
,  // measure 70
0001
2002
0003
3100
,  // measure 71
0010
0202
0300
1003
,  // measure 72
0010
2002
3003
0000
;

//---------------dance-single - ----------------
#NOTES:
     dance-single:
     :
     Beginner:
     2:
     0.167,0.224,0.027,0.072,0.000: // measure 1
0100
0000
0000
0000
,  // measure 2
0000
0000
0000
0000
,  // measure 3
0010
0000
0000
0000
,  // measure 4
0100
0000
0000
0000
,  // measure 5
0010
0000
0000
0000
,  // measure 6
1000
0000
0000
0000
,  // measure 7
0001
0000
0000
0000
,  // measure 8
1000
0000
0000
0000
,  // measure 9
0010
0000
0000
0000
,  // measure 10
0100
0000
0000
0000
,  // measure 11
0010
0000
0010
0000
,  // measure 12
0010
0000
0010
0000
,  // measure 13
0100
0000
0100
0000
,  // measure 14
0100
0000
0100
0000
,  // measure 15
0001
0000
0001
0000
,  // measure 16
0001
0000
0001
0000
,  // measure 17
1000
0000
1000
0000
,  // measure 18
1000
0000
1000
0000
,  // measure 19
0010
0000
0100
0000
,  // measure 20
0010
0010
0010
0010
,  // measure 21
0100
0000
0010
0000
,  // measure 22
1000
0000
0001
0000
,  // measure 23
1000
0000
0000
0000
,  // measure 24
0001
0001
0001
0000
,  // measure 25
1000
1000
1000
0000
,  // measure 26
0010
0010
0010
0000
,  // measure 27
0100
0100
0100
0000
,  // measure 28
0001
0001
0001
0000
,  // measure 29
1000
1000
1000
0000
,  // measure 30
0100
0100
0100
0000
,  // measure 31
1000
0010
1000
0000
,  // measure 32
0010
0000
0000
0000
,  // measure 33
0100
0000
0000
0000
,  // measure 34
0001
0000
0000
0000
,  // measure 35
1000
0000
0000
0000
,  // measure 36
0010
0000
0000
0000
,  // measure 37
1000
0000
0000
0000
,  // measure 38
0001
0000
0000
0000
,  // measure 39
0100
0000
0000
0000
,  // measure 40
0010
0000
0010
0000
,  // measure 41
0100
0000
0100
0000
,  // measure 42
0001
0000
0001
0000
,  // measure 43
1000
0000
0000
0000
,  // measure 44
0010
0000
0000
0000
,  // measure 45
0000
0000
0000
0000
,  // measure 46
1001
0000
0000
0000
,  // measure 47
0000
0000
0000
0000
,  // measure 48
0100
0000
0100
0000
,  // measure 49
0010
0000
0010
0000
,  // measure 50
1000
0000
1000
0000
,  // measure 51
0001
0000
0000
0000
,  // measure 52
1001
0000
0000
0000
,  // measure 53
0000
0000
0000
0000
,  // measure 54
0110
0000
0000
0000
,  // measure 55
0000
0000
0000
0000
,  // measure 56
0100
0010
0010
0010
,  // measure 57
0000
1000
1000
1000
,  // measure 58
0000
0001
0001
0001
,  // measure 59
0000
0100
0100
0100
,  // measure 60
0000
0010
0010
0010
,  // measure 61
0000
1000
1000
1000
,  // measure 62
0000
0001
0001
0001
,  // measure 63
0000
1000
0000
0001
,  // measure 64
0000
2000
0000
0000
,  // measure 65
3000
0020
0000
0000
,  // measure 66
0030
0200
0000
0000
,  // measure 67
0300
0020
0000
0000
,  // measure 68
0030
2000
0000
0000
,  // measure 69
3000
0002
0000
0000
,  // measure 70
0003
0200
0000
0000
,  // measure 71
0300
0020
0000
0000
,  // measure 72
0030
1000
0000
0000
;
