#TITLE:Full Metal Cars;
#SUBTITLE:;
#ARTIST:Daniel;
#TITLETRANSLIT:;
#SUBTITLETRANSLIT:;
#ARTISTTRANSLIT:;
#CREDIT:;
#BANNER:Full Metal Cars-bn.PNG;
#BACKGROUND:Full Metal Cars-bg.PNG;
#LYRICSPATH:;
#CDTITLE:Super Eurobeat 184.png;
#MUSIC:Full Metal Cars.mp3;
#OFFSET:-6.242;
#SAMPLESTART:20.150;
#SAMPLELENGTH:12.000;
#SELECTABLE:YES;
#BPMS:0.000=154.970;
#STOPS:;
#BGCHANGES:;

//---------------dance-single - ----------------
#NOTES:
     dance-single:
     :
     Hard:
     8:
     0.641,0.651,0.609,0.209,0.091:
0000
0000
0000
0000
,
0002
0000
0103
0000
0010
1000
1000
0020
,
0000
0000
1030
0000
1000
0000
0001
0000
0001
0000
0100
0000
0010
0100
0010
0100
,
0020
0000
1030
0000
0010
0100
0100
0020
,
0000
0000
0130
0000
0100
0000
0100
0000
0100
0000
0100
0000
0010
0100
0001
0010
,
0200
0000
1300
0000
0100
1000
0001
0010
,
0000
0000
0100
0000
0100
0000
1000
0000
1000
0000
0001
0000
1000
0001
1000
0001
,
1000
0000
0010
0000
0100
0010
0100
0010
0100
0000
0010
0000
1000
0010
1000
0010
,
2000
3001
0101
1010
,
1001
0000
0010
0100
0110
0000
0001
1000
,
0001
0000
1010
0000
0101
0000
0001
1000
,
0010
0100
0010
0100
0000
0010
0110
0000
,
0001
1000
0001
1000
0000
0011
1001
0000
,
0001
0000
1000
0010
1010
0000
0001
0100
,
0001
0000
0101
0000
1010
0000
0010
1000
,
0100
0010
0001
1000
0001
2001
0000
3010
,
0000
0000
0110
0000
1001
0000
0001
1000
,
1001
0000
0010
0100
0101
0000
0001
0010
,
0011
0000
1001
0000
1010
0000
0010
1000
,
0010
0100
0010
0100
0000
0010
1001
0000
,
0001
1000
0010
0100
0000
0100
0110
0000
,
1001
0000
0001
0010
0011
0000
0001
0100
,
0110
0000
1001
0000
1010
0000
0001
1000
,
0010
0100
0001
1000
0010
1000
0000
2010
,
0000
0000
0000
3001
0000
0010
1001
0000
,
2000
0000
3010
0000
0100
0001
0001
0200
,
0000
0000
0301
0000
0001
0000
1000
0000
1000
0000
0010
0000
0100
0010
0100
0010
,
0200
0000
0301
0000
0100
0010
0010
0200
,
0000
0000
0310
0000
0010
0000
0010
0000
0010
0000
0010
0000
0100
0010
1000
0100
,
0020
0000
0031
0000
0010
0001
1000
0100
,
0000
0000
0010
0000
0010
0000
0001
0000
0001
0000
1000
0000
0001
1000
0001
1000
,
0001
0000
0100
0000
0010
0100
0010
0100
0010
0000
0100
0000
0001
0100
0001
0100
,
0002
0000
1003
0000
0010
0102
0000
0000
,
1003
1000
0001
0010
0200
0000
1000
1300
,
0000
1000
0001
0010
0100
0010
1001
0000
,
0101
1001
1100
1001
,
1000
0100
1000
0100
0010
0001
0010
0001
,
1000
0000
0001
0100
0020
0000
0100
0130
,
0000
0100
0001
0100
0001
1000
0010
0000
,
1001
0000
1001
0000
0110
0000
0100
0001
,
1000
0001
0010
0200
0000
1300
0000
0000
,
1000
0010
1000
0001
0010
0001
1000
0010
,
1000
0001
0010
0100
1000
0000
1001
0000
,
0010
1000
0100
1000
0001
0100
0001
1000
,
0100
1000
0001
0100
0010
0000
1001
0000
,
0001
0010
0100
1000
0010
0100
0001
1000
,
0001
1000
0010
0100
0001
1000
0100
0000
,
0100
0010
0001
1000
0001
0010
0100
1000
,
0001
1000
0010
0100
0001
0100
0010
2002
,
0000
3003
0000
1001
,
1001
0000
0100
0010
0110
0000
1000
0001
,
1000
0000
0101
0000
1010
0000
1000
0001
,
0100
0010
0100
0010
0000
0100
0110
0000
,
1000
0001
1000
0001
0000
1100
1001
0000
,
1000
0000
0001
0100
0101
0000
1000
0010
,
1000
0000
1010
0000
0101
0000
0100
0001
,
0010
0100
1000
0001
1000
1002
0000
0103
,
0000
0000
0110
0000
1001
0000
1000
0001
,
1001
0000
0100
0010
1010
0000
1000
0100
,
1100
0000
1001
0000
0101
0000
0100
0001
,
0100
0010
0100
0010
0000
0100
1001
0000
,
1000
0001
0100
0010
0000
0010
0110
0000
,
1001
0000
1000
0100
1100
0000
1000
0010
,
0110
0000
1001
0000
0101
0000
1000
0001
,
0100
0010
1000
0001
0100
0002
0000
0200
,
0000
0303
0000
0000
0000
0000
0000
0000
;

//---------------dance-single - ----------------
#NOTES:
     dance-single:
     :
     Medium:
     6:
     0.440,0.413,0.154,0.218,0.000: // measure 1
0000
0000
0000
0000
,  // measure 2
2000
0000
3001
0000
1000
0001
1000
0001
,  // measure 3
0000
1000
0010
0100
,  // measure 4
0002
0000
0013
0000
0100
1000
0100
1000
,  // measure 5
0000
0001
1000
0010
,  // measure 6
2000
0000
3001
0000
0100
0001
0100
0001
,  // measure 7
0000
1000
0010
1000
,  // measure 8
0010
1000
0010
0000
0100
0001
0100
0000
,  // measure 9
0020
2030
3002
0023
,  // measure 10
0230
0000
0000
1000
1300
0000
0000
1000
,  // measure 11
0010
0100
0101
0001
,  // measure 12
1000
0000
0001
1000
0001
0000
1000
0000
,  // measure 13
0010
1000
0010
1000
0000
0000
0001
0000
,  // measure 14
2000
0000
0000
0001
3001
0000
0000
0100
,  // measure 15
0001
1000
0110
0001
,  // measure 16
1000
0010
1000
0001
1000
0010
0000
1000
,  // measure 17
0000
0001
0001
1000
,  // measure 18
0002
0000
0000
1000
1003
0000
0000
0001
,  // measure 19
0100
0010
1010
1000
,  // measure 20
0001
0000
1000
0001
1000
0000
0001
0000
,  // measure 21
0100
0001
0100
0001
0000
0000
1000
0000
,  // measure 22
0020
0000
0000
1000
1030
0000
0000
0100
,  // measure 23
0010
0100
0110
1000
,  // measure 24
0001
0100
0001
1000
0001
0100
0000
0001
,  // measure 25
0000
1000
1000
0001
,  // measure 26
0002
0000
1003
0000
0001
1000
0001
1000
,  // measure 27
0000
0001
0100
0010
,  // measure 28
2000
0000
3100
0000
0010
0001
0010
0001
,  // measure 29
0000
1000
0001
0100
,  // measure 30
0002
0000
1003
0000
0010
1000
0010
1000
,  // measure 31
0000
0001
0100
0001
,  // measure 32
0100
0001
0100
0000
0010
1000
0010
0000
,  // measure 33
0200
0000
0302
0000
1003
0010
0000
0000
,  // measure 34
2020
0030
0000
0000
0000
0000
0000
0000
0000
0000
0000
0000
0000
0000
0000
0000
0000
0000
0000
0000
0000
0000
0000
0000
0000
0000
0000
0000
0000
0000
0000
0000
0000
0000
0000
0000
0000
0000
0000
0000
0000
0000
0000
0000
0000
0000
0000
0000
0001
0000
0000
0000
0000
0000
0000
0000
0000
0000
0000
0000
0000
0000
0000
0000
0000
0000
0000
0000
0000
0000
0000
0000
0000
0000
0000
0000
0000
0000
0000
0000
0000
0000
0000
0000
0000
0000
0000
0000
0000
0000
0000
0000
0000
0000
0000
0000
3001
0000
0000
0000
0000
0000
0000
0000
0000
0000
0000
0000
0000
0000
0000
0000
0000
0000
0000
0000
0000
0000
0000
0000
0000
0000
0000
0000
0000
0000
0000
0000
0000
0000
0000
0000
0000
0000
0000
0000
0000
0000
0000
0000
0000
0000
0000
0000
1000
0000
0000
0000
0000
0000
0000
0000
0000
0000
0000
0000
0000
0000
0000
0000
0000
0000
0000
0000
0000
0000
0000
0000
0010
0000
0000
0000
0000
0000
0000
0000
0000
0000
0000
0000
0000
0000
0000
0000
0000
0000
0000
0000
0000
0000
0000
0000
,  // measure 35
0000
1000
0010
1000
0010
1000
0000
0000
,  // measure 36
0001
0001
1000
1000
,  // measure 37
1001
0110
1001
0110
,  // measure 38
0002
0000
1000
0000
1003
0000
1000
0010
,  // measure 39
0000
0100
0010
0100
0010
0100
0000
0000
,  // measure 40
0010
0010
0100
0100
,  // measure 41
1010
0000
0101
0000
0010
1000
0010
0000
,  // measure 42
1000
0001
1000
0000
0010
0100
0010
0000
,  // measure 43
0100
0100
0010
0010
,  // measure 44
1000
0001
1000
0000
0001
0010
0001
0000
,  // measure 45
1000
1000
0001
1001
,  // measure 46
1000
0010
1000
0000
0001
0100
0010
0000
,  // measure 47
1000
1000
0001
0001
,  // measure 48
1000
0010
1000
0000
0010
0100
0010
0000
,  // measure 49
0100
0001
0100
0010
0100
0001
0100
0020
,  // measure 50
0000
0000
0000
0000
0000
0000
0000
0000
0000
0000
0000
0000
0000
0000
0000
0000
0000
0000
0000
0000
0000
0000
0000
0000
0000
0000
0000
0000
0000
0000
0000
0000
0000
0000
0000
0000
0000
0000
0000
0000
0000
0000
0000
0000
0000
0000
0000
0000
0000
0000
0000
0000
0000
0000
0000
0000
0000
0000
0000
0000
0000
0000
0000
0000
0000
0000
0000
0000
0000
0000
0000
0000
0000
0000
0000
0000
0000
0000
0000
0000
0000
0000
0000
0000
0000
0000
0000
0000
0000
0000
0000
0000
0000
0000
0000
0000
0100
0030
0000
0000
0000
0000
0000
0000
0000
0000
0000
0000
0000
0000
0000
0000
0000
0000
0000
0000
0000
0000
0000
0000
0000
0000
0000
0000
0000
0000
0000
0000
0000
0000
0000
0000
0000
0000
0000
0000
0000
0000
0000
0000
0000
0000
0000
0000
1001
0000
0000
0000
0000
0000
0000
0000
0000
0000
0000
0000
0000
0000
0000
0000
0000
0000
0000
0000
0000
0000
0000
0000
0000
0000
0000
0000
0000
0000
0000
0000
0000
0000
0000
0000
0000
0000
0000
0000
0000
0000
0000
0000
0000
0000
0000
0000
,  // measure 51
0002
0000
0000
0100
0103
0000
0000
1000
,  // measure 52
0001
1000
1001
0010
,  // measure 53
0100
0000
0010
0100
0010
0000
0100
0000
,  // measure 54
0001
0100
1000
0100
0000
0000
0001
0000
,  // measure 55
0200
0000
0000
0010
0310
0000
0000
1000
,  // measure 56
0001
0100
1001
0010
,  // measure 57
0100
0001
1000
0010
0100
0001
0000
0100
,  // measure 58
0000
0010
0010
0100
,  // measure 59
0020
0000
0000
0100
0130
0000
0000
0100
,  // measure 60
0001
1000
1100
0100
,  // measure 61
0010
0000
0100
0010
0100
0000
0010
0000
,  // measure 62
0001
0010
0001
0010
0000
0000
0100
0000
,  // measure 63
2000
0000
0000
0100
3100
0000
0000
1000
,  // measure 64
0001
1000
1001
0010
,  // measure 65
0100
0001
0010
0100
0010
0001
0000
1000
;

//---------------dance-single - ----------------
#NOTES:
     dance-single:
     :
     Easy:
     4:
     0.334,0.413,0.218,0.245,0.000: // measure 1
0000
0000
0000
0000
,  // measure 2
1000
0001
2000
3000
,  // measure 3
0001
0001
1000
1000
,  // measure 4
0010
0100
0020
0030
,  // measure 5
0100
0100
0010
0010
,  // measure 6
0100
0001
0200
0300
,  // measure 7
0001
0001
0100
0100
,  // measure 8
0010
1000
0010
0100
,  // measure 9
0001
0002
1003
2000
,  // measure 10
3002
0000
1003
0000
,  // measure 11
0001
1000
1001
0000
,  // measure 12
0001
0001
1000
0000
,  // measure 13
1000
0001
1001
0000
,  // measure 14
0200
0000
0310
0000
,  // measure 15
0100
0010
1001
0000
,  // measure 16
0001
0001
1000
1000
,  // measure 17
2000
0000
3002
0000
,  // measure 18
2003
0000
3001
0000
,  // measure 19
1000
0001
1001
0000
,  // measure 20
1000
1000
0001
0000
,  // measure 21
0001
1000
1001
0000
,  // measure 22
0020
0000
0130
0000
,  // measure 23
0010
0100
1001
0000
,  // measure 24
1000
1000
0001
0001
,  // measure 25
0002
0000
2003
0000
,  // measure 26
3001
1000
0002
0003
,  // measure 27
1000
1000
0001
0001
,  // measure 28
0100
0010
0200
0300
,  // measure 29
0010
0010
0100
0100
,  // measure 30
0010
1000
0020
0030
,  // measure 31
1000
1000
0010
0010
,  // measure 32
0100
0001
0100
0010
,  // measure 33
2000
0001
3001
0000
,  // measure 34
0001
0001
1000
0001
,  // measure 35
1000
0010
0110
0000
,  // measure 36
0100
0100
0010
0010
,  // measure 37
0100
0010
2000
3000
,  // measure 38
0001
1000
0001
0010
,  // measure 39
0100
1000
1001
0000
,  // measure 40
0001
0001
1000
0010
,  // measure 41
0100
0001
2000
0000
,  // measure 42
3001
0001
1000
1000
,  // measure 43
0001
1000
0001
1001
,  // measure 44
0010
0010
0100
0100
,  // measure 45
0010
0100
0010
0110
,  // measure 46
0001
0001
1000
1001
,  // measure 47
1000
1000
0010
0110
,  // measure 48
0100
0100
0001
1001
,  // measure 49
0110
1001
0011
1100
,  // measure 50
2002
0000
3003
0001
,  // measure 51
0200
0000
0310
0000
,  // measure 52
0100
0010
0110
0000
,  // measure 53
0100
0100
0010
0000
,  // measure 54
0010
0100
0110
0000
,  // measure 55
2000
0000
3001
0000
,  // measure 56
1000
0001
0110
0000
,  // measure 57
0100
0100
0010
0010
,  // measure 58
0020
0000
0230
0000
,  // measure 59
0302
0000
0103
0000
,  // measure 60
0010
0100
0110
0000
,  // measure 61
0010
0010
0100
0000
,  // measure 62
0100
0010
1001
0000
,  // measure 63
0002
0000
1003
0000
,  // measure 64
0001
1000
0110
0000
,  // measure 65
0010
0010
0100
0100
,  // measure 66
0100
0000
0000
0000
;
