#TITLE:Freedom Ride;
#SUBTITLE:;
#ARTIST:The Snake;
#TITLETRANSLIT:;
#SUBTITLETRANSLIT:;
#ARTISTTRANSLIT:;
#CREDIT:;
#BANNER:Freedom Ride-bn.png;
#BACKGROUND:Freedom Ride-bg.png;
#LYRICSPATH:;
#CDTITLE:Super Eurobeat 206.png;
#MUSIC:Freedom Ride.mp3;
#OFFSET:-7.272;
#SAMPLESTART:43.150;
#SAMPLELENGTH:12.000;
#SELECTABLE:YES;
#BPMS:0.000=155.040;
#STOPS:;
#BGCHANGES:;

//---------------dance-single - ----------------
#NOTES:
     dance-single:
     :
     Hard:
     8:
     0.568,0.496,0.340,0.266,0.014: // measure 1
1000
0010
1000
0000
0001
0100
1000
0100
,  // measure 2
0001
0100
0001
0100
0010
1000
0010
0000
,  // measure 3
0100
0010
0110
0000
0001
1000
1001
0000
,  // measure 4
0001
0000
0000
0001
0000
0000
1000
0000
0002
0000
0000
0000
1003
0000
0000
0000
,  // measure 5
0100
0001
0100
0000
1000
0010
0100
0010
,  // measure 6
0100
0010
0100
1000
0001
1000
0001
0000
,  // measure 7
1000
0010
1010
0000
0100
0001
0101
0000
,  // measure 8
2000
3010
1010
0101
,  // measure 9
0002
0000
1000
0000
0103
0000
0100
0001
,  // measure 10
0100
0000
0010
0100
0010
0100
0001
1000
,  // measure 11
0020
0000
1030
0001
2000
0000
3001
0100
,  // measure 12
0020
0130
0110
1001
,  // measure 13
2000
0000
0001
0000
3010
0000
0010
1000
,  // measure 14
0001
0100
0010
1000
0001
0010
0100
0010
,  // measure 15
0001
0000
0010
0100
0010
0000
0001
1000
,  // measure 16
0020
0000
1030
0000
0010
1000
0010
0000
,  // measure 17
1001
0000
0110
0000
0000
0010
0100
0010
,  // measure 18
0000
0000
0001
1000
0110
0000
0010
0000
,  // measure 19
0200
0001
0010
0301
,  // measure 20
1000
0010
0100
0001
0010
0100
0010
0000
,  // measure 21
0001
0010
0002
0000
0003
1000
0001
1001
,  // measure 22
0000
0001
1000
0010
0200
0000
0310
0000
,  // measure 23
1000
0010
0100
0001
0100
0010
0100
0000
,  // measure 24
2002
0000
3003
0000
,  // measure 25
1001
0000
0001
1000
0010
1000
0001
0000
,  // measure 26
1010
0000
0010
0100
0001
0100
0010
0000
,  // measure 27
1001
0000
0010
0100
0101
0000
0010
1000
,  // measure 28
1001
0000
0001
0010
0100
0010
0001
0000
,  // measure 29
0022
0000
0033
0000
1001
0000
0000
0110
,  // measure 30
0000
0010
0100
0010
0100
0001
1000
0000
,  // measure 31
0010
0001
0010
0100
1000
0010
0100
0010
,  // measure 32
1000
0000
0010
1000
0001
0100
0010
0000
,  // measure 33
1001
0000
0001
1000
0100
0010
0001
0000
,  // measure 34
0011
0000
0001
0010
0100
1000
0010
0100
,  // measure 35
0010
0000
0100
0010
0200
0000
0301
1000
,  // measure 36
0010
0100
0001
1000
0010
0100
0010
0000
,  // measure 37
0020
0000
0000
0000
0130
0000
0000
0110
,  // measure 38
0000
1001
0000
0010
1000
0010
1000
0010
,  // measure 39
0100
0001
0010
0001
0010
0100
0010
0001
,  // measure 40
0010
0001
0200
0310
,  // measure 41
0001
0100
0001
0000
1000
0010
0001
0010
,  // measure 42
1000
0010
1000
0010
0100
0001
0100
0000
,  // measure 43
0010
0100
0110
0000
1000
0001
1001
0000
,  // measure 44
1000
0000
0000
1000
0000
0000
0001
0000
2000
0000
0000
0000
3001
0000
0000
0000
,  // measure 45
0010
1000
0010
0000
0001
0100
0010
0100
,  // measure 46
0010
0100
0010
0001
1000
0001
1000
0000
,  // measure 47
0001
0100
0101
0000
0010
1000
1010
0000
,  // measure 48
0002
0103
0101
1010
,  // measure 49
2000
0000
0010
0000
3001
0000
0001
1000
,  // measure 50
0020
0000
0130
0000
0010
0100
0010
0000
,  // measure 51
1000
1000
2000
0000
3001
0001
0002
0000
,  // measure 52
1003
0001
1002
1003
,  // measure 53
2000
0000
0010
0000
3001
0000
0001
0100
,  // measure 54
0010
0000
0100
0000
0010
0100
0001
0000
,  // measure 55
0100
0001
0100
0001
0100
0010
1000
0010
,  // measure 56
1000
0010
0200
0310
,  // measure 57
0010
0100
0001
0000
0010
0001
0100
0001
,  // measure 58
0010
0001
0010
0001
1000
0100
1000
0000
,  // measure 59
0001
1000
1001
0000
0010
0100
0110
0000
,  // measure 60
0010
0000
0000
0010
0000
0000
0100
0000
0020
0000
0000
0000
0130
0000
0000
0000
,  // measure 61
0100
0010
1000
0000
0100
1000
0001
1000
,  // measure 62
0001
1000
0001
0100
0010
0100
0010
0000
,  // measure 63
1000
0100
1100
0000
0001
0010
0011
0000
,  // measure 64
0002
1003
1001
0000
;

//---------------dance-single - ----------------
#NOTES:
     dance-single:
     :
     Challenge:
     9:
     0.706,0.673,0.312,0.312,0.363:
0010
1000
0010
1000
0010
0000
0100
0001
0100
0001
0100
0000
0010
1000
0010
1000
,
0010
0010
1000
1000
0001
1000
0020
0000
,
0130
0010
0100
0010
0100
0000
0010
1000
0010
1000
0010
0000
0100
0010
0100
0010
,
0100
0000
0000
0010
0000
0000
1000
0000
0101
0000
0000
0000
1010
0000
0000
0000
,
1000
0001
1000
0001
1000
0000
0010
0100
0010
0100
0010
0000
1000
0001
1000
0001
,
1000
1000
0001
0001
0100
0010
1000
0000
,
0001
0100
0001
0100
0001
0000
1000
0010
1000
0010
1000
0000
0001
0100
0001
0100
,
0002
1003
2002
3003
,
0002
0000
1000
0000
0103
0000
0001
1000
,
0010
0100
0001
1000
0001
0010
0100
1000
,
0020
0000
1030
0001
2000
0000
3001
0100
,
0020
0130
0110
1001
,
2000
0000
0001
0000
3010
0000
0010
1000
,
0001
0100
0010
1000
0001
0010
0100
0010
,
0001
0000
0010
0100
0010
0000
0001
1000
,
0020
0000
1030
0000
0010
1000
0010
0000
,
1000
0001
2002
0000
3003
0010
1000
1001
,
0000
1000
0001
1000
0110
0000
0010
0000
,
0200
0001
0010
0301
,
1000
0010
0100
0001
0010
0100
0010
0000
,
0001
0010
2002
0000
3003
1000
0001
1001
,
0000
0001
1000
0010
0200
0000
0310
0000
,
1000
0010
0100
0001
0100
0010
0100
0000
,
2002
3003
0010
0110
,
1001
0000
0001
1000
0010
1000
0001
1000
,
1010
0000
0010
0100
0001
0100
0010
0100
,
0101
0000
0010
0100
0101
0000
0010
1000
,
1001
0000
0001
0010
0100
0010
0001
0000
,
0022
0000
0033
0000
1001
0000
0000
0110
,
0000
0010
0100
0010
0100
0001
1000
0100
,
0010
0001
0010
0100
1000
0010
0100
0010
,
1000
0000
0010
1000
0001
0100
0010
1000
,
1001
0000
0001
1000
0100
0010
0001
0010
,
0011
0000
0001
0010
0100
1000
0010
0100
,
0010
0000
0100
0010
0200
0000
0301
1000
,
0010
0100
0001
1000
0010
0100
0010
0000
,
0020
0000
0000
0000
0130
0000
0000
0110
,
0000
1001
0000
0010
1000
0010
1000
0010
,
0100
0001
0010
0001
0010
0100
0010
0001
,
0010
0001
0200
0310
,
0010
1000
0010
1000
0010
0000
1000
0100
1000
0100
1000
0000
0010
0001
0010
0001
,
0010
0010
0001
0001
0100
0001
1001
0000
,
1000
0010
1000
0010
1000
0000
0001
0010
0001
0010
0001
0000
0100
0001
0100
0001
,
0100
0000
0000
0001
0000
0000
1000
0000
0110
0000
0000
0000
1001
0000
0000
0000
,
0001
0100
0001
0100
0001
0000
1000
0001
1000
0001
1000
0000
0001
0100
0001
0100
,
0001
0001
1000
1000
0001
1000
1001
0000
,
0100
1000
0100
1000
0100
0000
0010
0001
0010
0001
0010
0000
0100
1000
0100
1000
,
0200
1300
0110
1001
,
2000
0000
0010
0000
3001
0000
0001
1000
,
0020
0000
0130
0000
0010
0100
0010
0000
,
1000
0010
1000
0010
1000
0000
0000
0000
0001
0100
0001
0100
0001
0000
0000
0000
,
2000
3001
1002
1003
,
2000
0000
0010
0000
3001
0000
0001
0100
,
0010
0000
0100
0000
0010
0100
0001
0000
,
0100
0001
0100
0001
0100
0010
1000
0010
,
1000
0010
0200
0310
,
0100
0001
0100
0001
0100
0000
0010
1000
0010
1000
0010
0000
0100
0001
0100
0001
,
0100
0100
0001
0001
1000
0001
0200
0000
,
0310
0100
0010
0100
0010
0000
0100
0001
0100
0001
0100
0000
0010
0100
0010
0100
,
0010
0000
0000
0100
0000
0000
0001
0000
1010
0000
0000
0000
0101
0000
0000
0000
,
0001
1000
0001
1000
0001
0000
0100
0010
0100
0010
0100
0000
0001
1000
0001
1000
,
0001
0001
1000
1000
0010
0100
0001
0000
,
1000
0010
1000
0010
1000
0000
0001
0100
0001
0100
0001
0000
1000
0010
1000
0010
,
2000
3001
2002
3003
;

//---------------dance-single - ----------------
#NOTES:
     dance-single:
     :
     Medium:
     6:
     0.481,0.439,0.275,0.413,0.000:
1000
0010
1000
0000
0001
1000
0001
0000
,
1000
0010
0100
1001
,
0001
0010
0001
0000
1000
0001
1000
0000
,
0010
0100
2002
3003
,
0010
0100
0010
0000
1000
0001
1000
0000
,
0010
1000
0001
1001
,
0001
0010
0001
0000
1000
0010
1000
0000
,
0220
0330
2002
3003
,
0001
0001
1000
1000
,
0001
1000
0001
0000
1000
0000
0010
0000
,
0100
0010
0100
0000
0001
1000
0001
0000
,
2001
0010
0001
3010
,
1001
0000
0110
0000
1001
0000
0001
1000
,
0010
0000
0100
0010
1000
0000
0001
0000
,
2000
0010
0001
3010
,
0002
0100
1000
0103
,
0010
0100
0010
0000
0000
0100
0100
0100
,
0000
0000
0000
0010
0100
0000
0010
0000
,
1000
0000
0001
1000
0000
0010
0000
0010
,
0000
0100
0100
0010
,
1000
0001
1000
0000
0000
0001
0001
0001
,
0000
1000
0001
0000
1000
0000
0010
0000
,
0100
0000
0001
0000
1000
0010
1000
0000
,
2002
0000
0000
3003
,
1001
0000
0010
1000
0010
2000
0000
3001
,
0000
1000
0010
1000
0001
0200
0000
0310
,
0000
1000
0001
1000
0010
0200
0000
0310
,
0000
1000
0001
1000
0010
0100
0000
0000
,
0002
0000
0000
0000
2003
0000
0000
3010
,
0000
0000
0100
0010
0100
0010
0000
1000
,
0000
1000
0001
0000
0001
0000
1000
0000
,
0010
0000
1000
0001
1000
0010
0000
2002
,
3003
0000
0010
0100
0010
0100
0000
2002
,
3003
0000
1000
0010
0100
0010
0000
1000
,
0000
0001
1000
0010
0100
0001
0000
0001
,
0000
1000
0001
0000
0100
0000
0010
0000
,
0200
0000
0000
0000
0320
0000
0000
0130
,
0000
0001
1000
0000
0001
0000
0001
0000
,
0100
0010
1000
0000
0001
1000
0010
0000
,
0100
0010
1001
0110
,
0001
0100
0001
0000
1000
0001
1000
0000
,
0001
0100
0010
1001
,
1000
0100
1000
0000
0001
1000
0001
0000
,
0100
0010
2002
3003
,
0100
0010
0100
0000
0001
1000
0001
0000
,
0100
0001
1000
1001
,
1000
0100
1000
0000
0001
0100
0001
0000
,
0202
0303
2020
3030
,
2000
0010
3001
0002
,
1000
0103
0200
0310
,
0010
0100
0010
0000
0100
0010
0100
0000
,
1001
0110
2002
3003
,
0020
0100
1030
2000
,
0010
3001
0020
0130
,
0002
1003
0200
0310
,
2000
3001
1010
0101
,
0010
0001
0010
0000
0100
0010
0100
0000
,
0010
0001
1000
0110
,
0100
0001
0100
0000
0010
0100
0010
0000
,
1000
0001
2002
3003
,
0001
1000
0001
0000
0010
0100
0010
0000
,
0001
0010
0100
1100
,
0100
1000
0100
0000
0010
0001
0010
0000
,
0220
0330
2002
3003
;

//---------------dance-single - ----------------
#NOTES:
     dance-single:
     :
     Easy:
     4:
     0.299,0.439,0.184,0.294,0.000:
1000
0000
0001
0000
,
1000
1000
0001
0001
,
0100
0000
0010
0000
,
0100
0010
0110
0000
,
0100
0000
0010
0000
,
0100
0100
0010
0010
,
1000
0000
0001
0000
,
2000
0000
3001
0000
,
1000
1000
1000
0000
,
0001
0001
0001
0000
,
1000
0010
0100
0001
,
2000
0000
3001
0000
,
0001
0000
1000
0000
,
0001
0001
1000
0000
,
1000
0010
0100
0001
,
0200
0000
0301
0000
,
1000
0001
0000
0100
,
0010
0000
0100
0100
,
0020
0000
0000
0000
,
0130
0000
0100
0000
,
0100
0100
0000
0010
,
0010
0000
1000
0001
,
2000
0000
3001
0000
,
1001
0000
0100
0100
,
0110
0000
0010
0010
,
0110
0000
1000
1000
,
0002
0000
2003
0000
,
3002
0000
1003
0001
,
2002
3003
0220
0330
,
2002
3003
0001
0001
,
1000
1000
0010
0100
,
1001
0000
0010
0010
,
0110
0000
0100
0100
,
0110
0000
0001
0001
,
2000
0000
3002
0000
,
2003
0000
3001
1000
,
2002
3003
0220
0330
,
2002
3003
1000
1000
,
0001
0001
0100
0010
,
0100
0001
1000
0001
,
1001
0000
1000
0000
,
0001
0001
1000
1000
,
0010
0000
0100
0000
,
0010
0100
0110
0000
,
0010
0000
0100
0000
,
0010
0010
0100
0100
,
0001
0000
1000
0000
,
0002
0000
1003
0000
,
0002
0000
1000
0000
,
1003
0000
1000
0000
,
0001
0001
1000
1000
,
2002
3003
0220
0330
,
0200
0000
0001
0000
,
0301
0000
1000
1000
,
0001
1000
0010
0100
,
0001
1000
0010
0100
,
1001
0000
0001
0000
,
1000
0010
0100
0001
,
1000
0000
0001
0000
,
1000
0001
1001
0000
,
0010
0000
0100
0000
,
0001
1000
0010
0100
,
0001
0000
1000
0000
,
0001
0000
2002
3003
;
