#TITLE:Freedom Of Love;
#SUBTITLE:;
#ARTIST:Mr. M.;
#TITLETRANSLIT:;
#SUBTITLETRANSLIT:;
#ARTISTTRANSLIT:;
#CREDIT:;
#BANNER:Freedom Of Love-bn.png;
#BACKGROUND:Freedom Of Love-bg.png;
#LYRICSPATH:;
#CDTITLE:cd.png;
#MUSIC:Freedom Of Love.mp3;
#OFFSET:-6.120;
#SAMPLESTART:53.490;
#SAMPLELENGTH:12.000;
#SELECTABLE:YES;
#BPMS:0.000=160.000;
#STOPS:225.750=0.750
,227.750=0.750
,232.000=1.125
;
#BGCHANGES:;

//---------------dance-single - ----------------
#NOTES:
     dance-single:
     :
     Hard:
     9:
     0.675,0.751,0.350,0.293,0.284:
1000
1001
0001
0011
,
1000
1001
0001
1001
,
1000
0000
0101
0000
0100
0100
0100
0000
,
0020
0000
0130
0100
,
0001
0010
0002
0000
1003
0010
2000
0000
,
3010
0100
0020
0000
0130
0001
0200
0000
,
0301
0010
0002
0000
0013
0100
0010
0000
,
2100
0000
3001
0101
,
1000
0000
0010
0000
0010
0000
1000
0100
0000
0000
0010
0000
0001
0000
1000
0000
,
0100
0000
0010
0000
0010
0000
0001
0100
0000
0000
0010
0000
0100
0000
0001
0000
,
1000
0010
1000
0000
0001
0100
0001
0100
0000
0000
0010
0000
0010
0000
0100
0000
,
0010
1000
0010
1000
0010
1000
0000
0001
0000
1000
0100
1000
0100
1000
0000
0000
,
0001
0000
0100
0000
0100
0000
0001
0010
0000
0000
0100
0000
1000
0000
0001
0000
,
0010
0000
0100
0000
0100
0000
1000
0010
0000
0000
0100
0000
0010
0000
1000
0000
,
0001
0100
0001
0000
1000
0010
1000
0010
0000
0000
0100
0000
0100
0000
0010
0000
,
0100
0001
0100
0001
1000
0001
1000
0001
1000
0010
1000
0010
0100
0010
0000
0000
,
2000
0000
3001
0000
0100
0010
1000
0000
,
0010
0100
0001
0000
0010
0100
1000
0000
,
0010
1000
0002
0000
2003
0000
3020
0000
,
0130
0010
0100
0001
1000
0010
0100
0000
,
1002
0000
0103
0000
0010
0100
0001
0000
,
1000
0001
0010
0000
0001
1000
0001
0000
,
1000
0010
0100
0000
0010
0100
0010
0000
,
0100
0001
1000
0010
0100
0010
1000
0000
,
0002
0000
1000
0000
0103
0000
1000
0100
,
2000
0000
3001
0000
1000
0010
1000
0010
,
0200
0000
0310
0100
0002
0000
0103
0010
,
0100
0001
1000
0100
0010
0001
1000
0000
,
0020
0000
0100
0000
1030
0000
0001
0010
,
0002
0000
1003
0000
0001
1000
0010
0100
,
0001
0000
0100
0010
0100
0000
0101
0000
,
0010
0010
0020
0000
0000
0100
0130
0000
,
0001
1000
0010
1000
0000
1001
0000
0011
,
0000
1100
0000
2000
0000
0001
0000
0010
,
0000
3001
0000
0200
0000
0010
0310
0000
,
1000
0001
0100
0010
1000
0001
0100
0000
,
0001
1000
0100
1010
0000
1001
0000
0101
,
0000
1010
0000
0002
0000
0100
0000
1000
,
0000
0013
0000
0200
0000
0010
0310
0000
,
0001
0010
0100
0000
1001
0000
1100
0000
,
0010
0010
0100
1001
0000
0002
0000
0100
,
0000
0103
0000
1001
0000
1001
0000
0110
,
0000
1001
0000
1100
0000
0011
0011
0000
,
0010
0001
1000
0010
1000
0001
0010
0000
,
0001
0001
1000
1001
0000
2000
0000
0010
,
0000
3001
0000
0011
0000
0011
0000
1100
,
0000
1001
0000
0011
0000
1100
1100
0000
,
1000
1000
0001
0001
1000
0010
0100
0000
,
0001
0000
0100
0000
0100
0000
0001
0010
0000
0000
0100
0000
1000
0000
0001
0000
,
0010
0000
0100
0000
0100
0000
1000
0010
0000
0000
0100
0000
0010
0000
1000
0000
,
0001
0100
0001
0000
1000
0010
1000
0010
0000
0000
0100
0000
0100
0000
0010
0000
,
0100
0001
0100
0001
0100
0001
0000
1000
0000
0001
0010
0001
0010
0001
0000
0000
,
1000
0000
0010
0000
0010
0000
1000
0100
0000
0000
0010
0000
0001
0000
1000
0000
,
0100
0000
0010
0000
0010
0000
0001
0100
0000
0000
0010
0000
0100
0000
0001
0000
,
1000
0010
1000
0000
0001
0100
0001
0100
0000
0000
0010
0000
0010
0000
0100
0000
,
0010
1000
0010
1000
0001
1000
0001
1000
0001
0100
0001
0100
0010
0000
0000
0000
,
0100
0000
0010
0000
0100
0000
0001
1000
0010
0000
0100
0000
0010
0000
1000
0001
,
0100
0000
0001
0000
0010
0000
0100
1000
0000
0000
0001
0000
0001
0000
0000
0000
,
2002
3003
0000
0000
0000
0000
0000
0000
1000
0000
0000
0000
0100
0000
0000
0000
1000
0000
0000
0000
0010
0000
1000
0000
0000
0000
0000
0000
0010
0000
0000
0000
,
0100
0000
0001
0000
0100
0000
0010
0000
0100
0000
0001
0100
0000
0000
0001
0000
,
0100
0000
0010
0000
1000
0000
0001
0000
0010
0000
0001
0010
0000
0000
0001
0000
,
0010
0000
0100
0000
1000
0100
1000
0100
1000
0100
1000
0010
1000
0010
1000
0010
,
1000
0010
1000
0000
0001
0000
0001
0000
1000
0000
2002
0000
3003
0000
0000
0000
,
1000
1000
0001
2002
3003
0000
0000
0000
;

//---------------dance-single - ----------------
#NOTES:
     dance-single:
     :
     Medium:
     6:
     0.422,0.421,0.104,0.114,0.000: // measure 1
1000
0010
1000
0000
,  // measure 2
0001
0100
0001
0000
,  // measure 3
1000
0010
1000
0000
,  // measure 4
2002
0003
0001
3001
,  // measure 5
0001
1000
0001
0000
1000
0010
1000
0000
,  // measure 6
0001
1000
0010
0100
,  // measure 7
0001
0100
0010
0000
0100
0010
1000
0000
,  // measure 8
0002
0000
1000
1003
,  // measure 9
0001
1000
0010
0000
1001
0000
0000
0000
,  // measure 10
0001
0010
0100
0000
1100
0000
0000
0000
,  // measure 11
0001
1000
0001
0000
1000
0010
1000
0000
,  // measure 12
0010
0100
0010
0000
0100
0010
0100
0000
,  // measure 13
0001
1000
0010
0000
1001
0000
0000
0000
,  // measure 14
1000
0010
0100
0000
1001
0000
0000
0000
,  // measure 15
0001
1000
0001
0000
0100
0010
0100
0000
,  // measure 16
0001
0001
0001
0000
1000
1000
1000
0000
,  // measure 17
0020
0000
0130
0000
0001
1000
0000
0001
,  // measure 18
0000
0001
0000
1000
0000
1000
0000
0010
,  // measure 19
0000
1000
0000
0000
0000
0000
0001
1000
,  // measure 20
0000
0010
0000
0010
0000
0010
1000
0000
,  // measure 21
1001
0000
0010
0000
1000
0001
0000
0100
,  // measure 22
0000
0100
0000
0010
0000
0010
0000
0100
,  // measure 23
0000
0010
0000
0100
0000
0001
1000
0000
,  // measure 24
0010
0000
1000
0000
0001
1000
0010
0000
,  // measure 25
2000
0000
0000
3010
0000
0000
0000
0000
,  // measure 26
0002
0000
0000
0103
0000
0000
0000
0000
,  // measure 27
0010
0000
1000
0001
1000
0000
0010
0000
,  // measure 28
0100
0001
1000
0010
,  // measure 29
2000
0000
0000
3010
0000
0000
0000
0000
,  // measure 30
0200
0000
0000
0301
0000
0000
1000
0000
,  // measure 31
0001
0000
1000
0010
1000
0000
0001
0000
,  // measure 32
0100
0100
0100
0000
0000
0010
0010
0000
,  // measure 33
1000
0010
1000
0010
0000
0100
0000
0100
,  // measure 34
0000
0010
0000
0010
0000
0100
0000
0010
,  // measure 35
0000
0100
0000
0010
0000
0100
0001
0000
,  // measure 36
0000
1000
0010
0000
1000
0000
0010
0000
,  // measure 37
1000
0001
1000
0001
0000
0001
0000
1000
,  // measure 38
0000
0010
0000
1000
0000
0010
0000
1000
,  // measure 39
0000
0010
0000
0100
0000
0001
2000
0000
,  // measure 40
0000
0010
0010
3010
,  // measure 41
0001
0010
0001
1000
0000
0010
0000
1000
,  // measure 42
0000
0001
0000
0100
0000
0001
0000
1000
,  // measure 43
0000
0001
0000
0001
0000
1000
0100
0000
,  // measure 44
0000
0010
0001
0000
0010
0000
0001
0000
,  // measure 45
0010
0100
0010
0100
0000
0100
0000
0010
,  // measure 46
0000
0001
0000
0010
0000
0100
0000
1000
,  // measure 47
0000
0001
0000
1000
0000
0100
0020
0000
,  // measure 48
0000
0001
0001
0031
,  // measure 49
1000
0010
0100
0000
0101
0000
0000
0000
,  // measure 50
1000
0100
0010
0000
0011
0000
0000
0000
,  // measure 51
0100
1000
0001
0000
0100
0010
1000
0000
,  // measure 52
0001
0001
0001
0000
1000
1000
1000
0000
,  // measure 53
0001
0010
0100
0000
1100
0000
0000
0000
,  // measure 54
0010
0001
1000
0000
0101
0000
0000
0000
,  // measure 55
0100
0010
0100
0000
0001
1000
0001
0000
,  // measure 56
0100
0100
0100
0000
0010
0010
0010
0000
,  // measure 57
1000
0001
1000
0000
0010
0100
0010
0000
,  // measure 58
1000
0100
0100
0000
0010
0001
0001
0000
,  // measure 59
1001
0000
1000
0001
0100
0010
0100
0000
,  // measure 60
0010
0000
0100
0001
1000
0001
0010
0000
,  // measure 61
0001
0000
1000
0010
1000
0010
0100
0000
,  // measure 62
0010
0000
1000
0001
0001
1000
0001
1000
,  // measure 63
1000
0000
0010
0010
0100
0020
0030
0000
,  // measure 64
0100
0100
0010
0200
0300
0000
0000
0000
;

//---------------dance-single - ----------------
#NOTES:
     dance-single:
     :
     Easy:
     3:
     0.284,0.300,0.076,0.057,0.000: // measure 1
0010
1000
0010
0000
,  // measure 2
0100
0001
0100
0000
,  // measure 3
0010
1000
0010
0000
,  // measure 4
0020
0000
0100
0130
,  // measure 5
0100
0100
0010
0000
,  // measure 6
0100
0010
1000
0000
,  // measure 7
0100
1000
0001
0200
,  // measure 8
0000
0000
0310
0010
,  // measure 9
0100
1000
0001
0000
,  // measure 10
0100
0001
1000
0000
,  // measure 11
0100
0100
0010
0010
,  // measure 12
1000
1000
0001
0001
,  // measure 13
0100
1000
0010
0000
,  // measure 14
0010
0100
0001
0000
,  // measure 15
1000
1000
0001
0001
,  // measure 16
0100
0100
0010
0010
,  // measure 17
0001
0000
0100
0000
,  // measure 18
0010
0000
0100
0000
,  // measure 19
0010
0010
0000
0000
,  // measure 20
0100
0010
1000
0001
,  // measure 21
0110
0000
0010
0000
,  // measure 22
0100
0000
0001
0000
,  // measure 23
1000
0000
0001
0010
,  // measure 24
1000
0010
0100
1000
,  // measure 25
0002
0000
1003
0000
,  // measure 26
0010
0010
1000
1000
,  // measure 27
0010
0000
0010
0000
,  // measure 28
0001
0000
0010
0000
,  // measure 29
2000
0000
3001
0000
,  // measure 30
0100
0100
0010
1000
,  // measure 31
0100
0000
0010
0100
,  // measure 32
0001
0001
0000
1000
,  // measure 33
0010
0010
0010
0000
,  // measure 34
1000
0000
0001
0000
,  // measure 35
1000
0000
0010
0100
,  // measure 36
0000
1000
0010
1000
,  // measure 37
0010
0010
0010
0000
,  // measure 38
0001
0000
0100
0000
,  // measure 39
0010
0000
1000
0000
,  // measure 40
0001
1000
1000
1000
,  // measure 41
0100
0010
1001
0000
,  // measure 42
1000
0000
0001
0000
,  // measure 43
0100
0000
0010
1000
,  // measure 44
0000
0001
1000
0100
,  // measure 45
1000
0001
1001
0000
,  // measure 46
0001
0000
1000
0000
,  // measure 47
0010
0000
0100
0000
,  // measure 48
0001
0100
0100
0100
,  // measure 49
0010
0001
0101
0000
,  // measure 50
0010
1000
1100
0000
,  // measure 51
0001
0100
0001
0010
,  // measure 52
0100
0100
0010
0010
,  // measure 53
0100
0001
0011
0000
,  // measure 54
1000
0010
0101
0000
,  // measure 55
0001
0001
0100
0100
,  // measure 56
0001
0001
1000
1000
,  // measure 57
0010
0010
1000
1000
,  // measure 58
0010
0001
1000
0100
,  // measure 59
0110
0010
0001
0001
,  // measure 60
1000
0001
0010
1000
,  // measure 61
0100
0010
0010
0001
,  // measure 62
1000
0010
0100
0100
,  // measure 63
0010
0000
2000
0000
0000
3001
0000
0000
,  // measure 64
0002
0000
0000
1003
0000
0000
0000
0000
;
