#TITLE:Flyday Chinatown;
#SUBTITLE:;
#ARTIST:泰葉;
#TITLETRANSLIT:;
#SUBTITLETRANSLIT:;
#ARTISTTRANSLIT:Yashua;
#CREDIT:;
#BANNER:Flyday Chinatown-bn.png;
#BACKGROUND:Flyday Chinatown-bg.png;
#LYRICSPATH:;
#CDTITLE:cd.png;
#MUSIC:Flyday Chinatown.mp3;
#OFFSET:-8.860;
#SAMPLESTART:65.310;
#SAMPLELENGTH:12.000;
#SELECTABLE:YES;
#BPMS:0.000=123.240,164.000=123.440;
#STOPS:;
#BGCHANGES:;

//---------------dance-single - ----------------
#NOTES:
     dance-single:
     :
     Hard:
     7:
     0.439,0.474,0.310,0.511,0.096:
1000
1000
0001
0000
0202
0000
0303
0000
,
0001
0001
1000
0000
2020
0000
3030
0000
,
2002
0000
3003
0000
0000
1001
0000
0000
,
0202
0300
2003
3001
,
1002
0000
1003
0000
1000
1000
1001
0000
,
0100
0000
0001
0000
0010
0000
0100
1000
0000
0000
0001
0000
1001
0000
0000
0000
,
0100
0100
0200
0000
0310
0010
0020
0000
,
2030
0000
3020
0000
0130
0001
1001
0000
,
0210
0000
0301
0000
0100
0100
0110
0000
,
0010
0000
0100
0000
0001
0000
1000
0010
0000
0000
0100
0000
1001
0000
0000
0000
,
0001
1000
0002
0000
1003
0001
2000
0000
,
3001
0000
0000
1001
0000
0000
1000
0000
2002
0000
0000
0000
3003
0000
0000
0000
,
0020
0000
0130
0000
,
0100
0000
0000
0100
0000
0000
0100
0000
0000
0000
0000
0000
0001
0000
0000
0000
,
0002
0000
2003
0000
,
3010
0000
0100
0000
0001
1000
1001
0000
,
2000
0000
3002
0000
,
0103
0000
0010
0100
0000
0000
0001
1000
,
2020
3030
0202
0303
,
0220
0000
0000
0330
,
0010
1000
0001
0100
,
0010
0100
0001
0000
2000
0000
3000
0000
,
0001
0010
0001
0000
1000
0100
1000
0000
,
2002
0000
0003
0000
3001
0001
0001
0000
,
2000
0001
3010
0100
,
0011
0000
1100
0000
1001
0000
0010
0001
,
0020
0000
0130
1000
0200
0000
1300
0000
,
0120
0000
0000
0130
0000
0000
0000
0000
,
0010
0000
0010
0000
0010
0000
0010
0000
0010
0000
0000
0110
0000
0000
0100
0000
,
1001
1010
0101
1010
,
0010
0000
1000
0000
0100
0000
0010
0001
0000
0000
1000
0000
1001
0000
0000
0000
,
1000
1000
2000
0000
3001
0001
0002
0000
,
0203
0320
2030
3001
,
0120
0000
1030
0000
0010
0010
0110
0000
,
0100
0000
0010
0000
1000
0000
0001
0100
0000
0000
0010
0000
1001
0000
0000
0000
,
1000
0001
2000
0000
3001
1000
0001
0000
,
2001
0000
0000
0001
0000
0000
0001
0000
3001
0000
0000
0000
0000
0000
0000
0000
,
2000
0000
3002
0000
,
0203
0000
0000
0000
0000
0000
0000
0000
0310
0000
0000
0010
0000
0000
0010
0000
,
0200
0000
0320
0000
,
2030
0000
3001
1001
,
0002
0000
1003
0000
0001
0100
0010
0100
,
0001
0000
0100
0000
0010
0000
0100
0000
0001
0010
0001
0000
0010
0100
0010
0000
,
0200
0000
1300
0000
1000
0001
0100
0010
,
0100
0000
0001
0000
1000
0000
0010
0000
0100
0001
0100
0000
0010
1000
0010
0000
,
2000
0000
3001
0100
0010
1000
0100
1000
,
0010
0000
0010
0000
0100
0000
0100
0000
0001
1000
0001
1000
0010
1000
0010
1000
,
0020
0000
1030
0001
1000
0010
0100
0001
,
1000
0000
1000
0000
0001
0000
0001
0000
1000
0010
1000
0010
0100
0010
0100
0010
,
2000
0000
3000
0000
;

//---------------dance-single - ----------------
#NOTES:
     dance-single:
     :
     Medium:
     5:
     0.298,0.316,0.182,0.182,0.000: // measure 1
1000
0001
1001
0000
,  // measure 2
1000
0010
0110
0000
,  // measure 3
0202
0000
0303
0000
0000
0010
0000
0000
,  // measure 4
2002
0003
3001
1000
,  // measure 5
1010
0100
0010
0100
,  // measure 6
0001
1000
0001
1000
0010
0000
0100
0000
,  // measure 7
0010
0100
0002
0000
1003
0010
0200
0000
,  // measure 8
0310
1000
0001
0010
,  // measure 9
0011
0001
1000
0001
,  // measure 10
1000
0010
0100
0001
1000
0000
1001
0000
,  // measure 11
1000
0010
1000
0000
0001
0100
0001
0000
,  // measure 12
0200
0000
0310
0000
,  // measure 13
0020
0000
0030
0000
,  // measure 14
0100
0100
0100
0000
,  // measure 15
0202
0000
0303
0000
,  // measure 16
0020
0000
0100
0130
,  // measure 17
0100
0000
0010
0000
,  // measure 18
1001
0000
0000
1000
0000
0000
0001
1000
,  // measure 19
0002
0000
1003
0000
,  // measure 20
1001
0000
0000
0000
,  // measure 21
1000
0010
0100
0010
,  // measure 22
0100
0010
0100
0000
0020
0000
0000
0000
,  // measure 23
0130
0000
0001
0000
1000
0000
0001
1000
,  // measure 24
0002
0000
0000
0003
,  // measure 25
1000
0000
0010
0100
,  // measure 26
0010
0000
0100
0000
0110
0000
0001
1000
,  // measure 27
0001
0000
1000
0010
0100
0000
0001
0010
,  // measure 28
0100
0000
0000
1001
0000
0000
0000
0000
,  // measure 29
1000
0001
1000
0001
1000
0000
0001
0000
,  // measure 30
2001
3001
1000
0010
,  // measure 31
0100
0001
1000
0001
1000
0000
1010
0000
,  // measure 32
0010
0000
0100
0000
0010
0100
0010
0000
,  // measure 33
1000
0000
0001
0000
0001
1000
0001
0000
,  // measure 34
0200
0010
0001
0310
,  // measure 35
0010
0100
0010
0000
1000
0001
1000
0000
,  // measure 36
1000
0010
0100
0000
0001
0010
0100
0000
,  // measure 37
1000
0000
1001
0000
,  // measure 38
1001
0000
0110
0000
,  // measure 39
1001
0000
1000
0000
,  // measure 40
1001
0000
0001
0000
,  // measure 41
1010
0000
0100
0010
,  // measure 42
1000
0000
0001
0000
1000
0010
1000
0000
,  // measure 43
0001
0000
0100
0000
0010
0100
0010
0000
,  // measure 44
0002
1003
0001
1000
,  // measure 45
0010
0100
0010
0000
0001
1000
0001
0000
,  // measure 46
2000
3010
0100
0001
,  // measure 47
1000
0010
1000
0000
0100
0001
0100
0000
,  // measure 48
0020
0000
0130
0000
0010
0100
0010
0000
,  // measure 49
1000
0001
1000
0001
,  // measure 50
2000
0000
3000
0000
;

//---------------dance-single - ----------------
#NOTES:
     dance-single:
     :
     Easy:
     3:
     0.220,0.226,0.146,0.155,0.000: // measure 1
1000
0001
1000
0000
,  // measure 2
0010
0100
0010
0000
,  // measure 3
0200
0000
0300
0000
,  // measure 4
0110
0000
1001
0000
,  // measure 5
0001
0001
1000
1000
,  // measure 6
0010
0100
0110
0000
,  // measure 7
1000
0001
0010
1000
,  // measure 8
0002
1003
1000
1000
,  // measure 9
0010
0100
0001
1000
,  // measure 10
0100
0010
0110
0000
,  // measure 11
1000
0001
0100
0010
,  // measure 12
2000
0000
3001
0000
,  // measure 13
0001
0000
1000
0000
,  // measure 14
0010
0010
0100
0000
,  // measure 15
0001
0000
1000
0000
,  // measure 16
2002
0000
3003
0000
,  // measure 17
0100
0000
0001
0000
,  // measure 18
1000
0000
0001
0000
,  // measure 19
1001
0000
0110
0000
,  // measure 20
2002
0000
0000
3003
,  // measure 21
0001
0001
1000
1000
,  // measure 22
0001
0000
1000
0000
,  // measure 23
0001
1000
0010
0100
,  // measure 24
0020
0000
0130
0000
,  // measure 25
0100
0010
1000
0001
,  // measure 26
1000
0001
1000
0010
,  // measure 27
1001
0000
0110
0000
,  // measure 28
1001
0000
0000
0000
,  // measure 29
1000
1000
0001
0001
,  // measure 30
2000
0010
0001
3010
,  // measure 31
0100
0010
0110
0000
,  // measure 32
0100
0100
0010
0010
,  // measure 33
1000
0001
0000
1000
,  // measure 34
0002
1000
0100
1003
,  // measure 35
0010
0100
0110
0000
,  // measure 36
1000
0001
1000
0010
,  // measure 37
0200
0000
0310
0000
,  // measure 38
0010
0000
0100
0000
,  // measure 39
1001
0000
0000
0000
,  // measure 40
1000
0000
0001
0000
,  // measure 41
1001
0000
0010
0000
,  // measure 42
0200
0000
0300
0000
,  // measure 43
0010
0010
0100
0100
,  // measure 44
0002
0000
0003
0000
,  // measure 45
1000
1000
0001
0001
,  // measure 46
0200
0000
0310
0000
,  // measure 47
0100
0100
0001
1000
,  // measure 48
0002
0000
1003
0000
,  // measure 49
1000
0001
1000
0010
,  // measure 50
2002
0000
0000
0000
0000
0000
0000
0000
0000
0000
0000
0000
0000
0000
0000
0000
0000
0000
0000
0000
0000
0000
0000
0000
0000
0000
0000
0000
0000
0000
0000
0000
0000
0000
0000
0000
0000
0000
0000
0000
0000
0000
0000
0000
0000
0000
0000
0000
0000
0000
0000
0000
0000
0000
0000
0000
0000
0000
0000
0000
0000
0000
0000
0000
0000
0000
0000
0000
0000
0000
0000
0000
0000
0000
0000
0000
0000
0000
0000
0000
0000
0000
0000
0000
0000
0000
0000
0000
0000
0000
0000
0000
0000
0000
0000
0000
0000
3003
0000
0000
0000
0000
0000
0000
0000
0000
0000
0000
0000
0000
0000
0000
0000
0000
0000
0000
0000
0000
0000
0000
0000
0000
0000
0000
0000
0000
0000
0000
0000
0000
0000
0000
0000
0000
0000
0000
0000
0000
0000
0000
0000
0000
0000
0000
0000
0000
0000
0000
0000
0000
0000
0000
0000
0000
0000
0000
0000
0000
0000
0000
0000
0000
0000
0000
0000
0000
0000
0000
0000
0000
0000
0000
0000
0000
0000
0000
0000
0000
0000
0000
0000
0000
0000
0000
0000
0000
0000
0000
0000
0000
0000
0000
;
