#TITLE:Express Love;
#SUBTITLE:;
#ARTIST:Mega NRG Man;
#TITLETRANSLIT:;
#SUBTITLETRANSLIT:;
#ARTISTTRANSLIT:;
#CREDIT:;
#BANNER:Express Love-bn.PNG;
#BACKGROUND:Express Love-bg.PNG;
#LYRICSPATH:;
#CDTITLE:Super Eurobeat 121.png;
#MUSIC:Express Love.ogg;
#OFFSET:-6.213;
#SAMPLESTART:48.724;
#SAMPLELENGTH:12.000;
#SELECTABLE:YES;
#BPMS:0.000=155.070;
#STOPS:107.500=0.774
;
#BGCHANGES:;

//---------------dance-single - ----------------
#NOTES:
     dance-single:
     :
     Hard:
     8:
     0.648,0.635,0.345,0.240,0.211:
1000
0010
0000
0000
0100
0001
0000
0000
1000
0000
0001
0000
1001
0000
0000
0000
,
0010
1000
0000
0000
0100
0001
0000
0000
1000
0000
0010
0000
0101
0000
0000
0000
,
0010
0100
0000
0000
0001
1000
0000
0000
0010
0000
0100
0000
0010
0000
0100
0000
,
2002
0000
0000
3003
,
1000
0010
1000
0020
0000
1030
0100
0020
,
0000
0000
0031
0000
0010
0000
0100
0000
1000
0000
0010
0000
0100
0010
0000
0000
,
0100
0000
0001
0000
1000
0000
0010
1000
0000
0010
1000
0000
0100
0000
1000
0010
,
0000
0100
0010
0000
0100
0000
0001
0000
0010
0000
0100
0000
1000
0000
0000
0000
,
0001
0100
0010
0200
0000
0301
0010
0200
,
0000
0000
1300
0000
0010
0000
0100
0000
0001
0000
0100
0000
0010
0100
0000
0000
,
0001
0000
1000
0000
0100
0000
1000
0001
0000
1000
0010
0000
0100
0000
0001
0100
,
0000
0100
0010
0000
1000
0000
0100
0000
0010
0000
0001
0000
1000
0000
0000
0000
,
1000
0010
1000
0010
0000
0101
0000
0002
,
0000
0013
0100
1000
0010
0100
0001
1000
,
0010
1000
0001
0100
0010
1000
0001
0100
,
0002
0000
0103
0000
0010
0100
0210
0000
,
0301
1000
0010
0100
0000
1001
0000
0210
,
0000
0301
1000
0010
0100
0001
0000
0001
,
1000
0100
1000
0010
0100
0001
0010
0100
,
0020
0000
0031
0000
0001
0010
0001
0000
,
2001
0010
0001
3010
,
0010
1000
0100
1000
0010
0100
0001
0000
,
0101
0101
0000
0000
1010
1010
0000
0000
,
0101
0101
0110
0110
,
0010
0100
0010
0100
0001
1000
0001
0010
,
0100
1000
0001
0100
0010
1000
0001
0100
,
0010
1000
0001
0010
0100
1000
0001
1001
,
0020
0130
0210
0001
,
0301
0010
0100
0010
0000
0001
0000
1010
,
0000
0101
0000
1010
0000
0010
1000
0100
,
1000
0001
0100
0010
1000
0001
0010
0100
,
0020
0031
0012
0103
,
1000
0010
1000
0100
0000
1010
0000
0101
,
0000
0100
0010
1000
0000
0010
0100
0001
,
1000
0010
0100
0001
1000
0100
0010
0001
,
0200
0310
0110
1001
,
0001
1000
0010
1000
0000
0010
0000
0110
,
0000
1001
0000
0110
0000
0001
1000
0010
,
0100
0001
1000
0100
0010
0001
0010
0001
,
0020
0031
0011
1100
,
0010
0100
0010
0100
0000
0110
0000
1001
,
0000
1010
0000
0110
0000
0010
0100
0001
,
1000
0010
0100
0002
0000
0000
0000
0000
,
1000
0000
1003
0000
0001
0100
0001
0200
,
0000
0301
0010
0200
0000
1300
0100
0010
,
0001
0000
0100
0000
0010
0100
0000
0000
0010
0000
1000
0000
0001
0000
0100
0001
,
0000
0100
0001
0000
0010
0000
0001
0100
0000
0010
0100
0000
0010
0000
1000
0000
,
0100
0010
0001
0000
1000
0010
0100
0020
,
0000
1030
0100
0020
0000
0031
0100
0010
,
1000
0000
0010
0000
0100
0010
0000
0000
1000
0000
0001
0000
0010
0000
0001
1000
,
0000
0001
0100
0000
0010
0000
1000
0010
0000
0010
0100
0000
0001
0000
0010
0000
,
0100
1000
0001
0000
1000
0010
1000
0010
,
1000
0010
0100
0001
0100
0010
0100
0001
,
1000
0000
0010
0000
0100
0010
0000
0000
0001
0000
0100
0000
0010
0000
1000
0010
,
0000
1000
0010
0000
1000
0000
0010
0000
0100
0001
0100
0001
1000
0010
1000
0010
,
0100
0001
0100
0001
0000
0000
0100
0000
0001
0000
1000
0000
0001
0000
1000
0000
,
0010
0100
0010
0100
0001
1000
0010
0100
,
0010
0000
1000
0000
0001
1000
0000
0000
0001
0000
1000
0000
0001
0000
1000
0001
,
0000
1000
0001
0000
1000
0000
0100
0000
1000
0001
1000
0001
0100
0010
0100
0010
,
1000
0010
1000
0010
0000
0000
1000
0000
0002
0000
0000
0000
2003
0000
0000
0000
,
3001
1001
0000
0000
;

//---------------dance-single - ----------------
#NOTES:
     dance-single:
     :
     Medium:
     5:
     0.422,0.375,0.086,0.393,0.000: // measure 1
2000
0000
3010
0000
0010
1000
0010
0000
,  // measure 2
0200
0000
0301
0000
0001
0100
0001
0000
,  // measure 3
0020
0000
0130
0000
0010
0100
0010
0000
,  // measure 4
2002
0000
0000
3003
,  // measure 5
0001
1000
0001
0000
0010
0100
0010
0000
,  // measure 6
0100
1000
0100
0000
0010
0000
0100
0000
,  // measure 7
0002
0013
0020
0130
,  // measure 8
0100
0010
0100
0001
,  // measure 9
0001
1000
0010
0000
0010
1000
0100
0000
,  // measure 10
0100
0010
0001
0000
0001
0000
0100
0000
,  // measure 11
0020
1030
0200
1300
,  // measure 12
0001
0100
0010
1010
,  // measure 13
0010
1000
0010
0000
0100
0000
1000
0000
,  // measure 14
0010
0000
0100
0000
0001
0010
0001
0000
,  // measure 15
0100
0000
0010
0000
1000
0100
1000
0000
,  // measure 16
0020
0130
0220
0330
,  // measure 17
0001
1000
0100
1000
,  // measure 18
0010
1000
0010
0000
0001
0100
0001
0000
,  // measure 19
0010
1000
0100
0010
,  // measure 20
0002
0000
0013
0000
0001
0010
0001
0000
,  // measure 21
0002
1000
0100
1003
,  // measure 22
2000
0010
0001
3010
,  // measure 23
0001
0001
0000
0000
1000
1000
0000
0000
,  // measure 24
0010
1000
0010
1000
0010
0000
1000
0000
,  // measure 25
0002
0100
1000
0013
,  // measure 26
0020
0001
0100
0031
,  // measure 27
0010
0000
0100
0000
1000
0000
0010
0100
,  // measure 28
0001
1000
2002
3003
,  // measure 29
0000
0010
1000
0010
0000
0020
0000
2030
,  // measure 30
0000
3002
0000
0103
0000
0000
1000
0000
,  // measure 31
0010
0100
0001
0010
,  // measure 32
0100
0010
0110
0000
,  // measure 33
0001
0000
1000
0000
0010
0000
0000
2000
,  // measure 34
0000
3200
0000
2300
0000
3000
0010
0000
,  // measure 35
0100
0001
0010
0001
,  // measure 36
0100
0010
2020
3030
,  // measure 37
0000
1000
0001
1000
0000
0020
0000
0230
,  // measure 38
0000
0320
0000
0130
0000
0000
0001
0000
,  // measure 39
1000
0100
1000
0010
,  // measure 40
0100
0001
0011
0000
,  // measure 41
0100
0000
0100
0000
0100
0000
0000
2000
,  // measure 42
0000
3002
0000
2003
0000
3000
0100
0000
,  // measure 43
1000
0010
1000
0000
,  // measure 44
0001
0000
0001
0000
1000
0001
1000
0000
,  // measure 45
0100
0010
0100
0000
0010
0001
0010
0000
,  // measure 46
0100
0010
2000
3100
,  // measure 47
0200
0310
0010
0100
,  // measure 48
0010
0000
1000
0000
1000
0001
0100
0000
,  // measure 49
0100
0001
0010
0000
0010
0100
1000
0000
,  // measure 50
1000
0010
0200
0301
,  // measure 51
0020
0031
1000
0010
,  // measure 52
0100
0000
0101
0000
0001
0000
1000
0001
,  // measure 53
0000
0000
0001
1000
0000
0000
0010
1000
,  // measure 54
0010
1000
0010
0000
2000
0000
3001
0000
,  // measure 55
0002
1003
0100
0010
,  // measure 56
1000
0000
0001
0000
0000
0000
0100
0010
,  // measure 57
0000
0000
0010
0100
0000
0000
0010
0100
,  // measure 58
0010
0100
0010
0000
0200
0000
0301
0000
,  // measure 59
0002
1003
1000
0001
,  // measure 60
0100
0010
1000
0001
,  // measure 61
0001
1001
0000
0000
;

//---------------dance-single - ----------------
#NOTES:
     dance-single:
     :
     Easy:
     3:
     0.285,0.289,0.115,0.144,0.000:
1000
0001
1000
0000
,
0010
0100
0010
0000
,
1000
0001
1000
0000
,
2002
0000
0000
3003
,
0001
0000
1000
0000
,
0010
0000
0100
0010
,
0100
0100
0010
0010
,
1000
1000
0001
0001
,
1000
0000
0001
0000
,
1000
0000
0001
0000
,
0010
0010
0100
0100
,
0001
1000
0010
1000
,
1000
0010
1000
0000
,
0001
0100
0001
0000
,
1000
0010
0100
0001
,
0010
0100
0020
0000
,
0130
0000
0001
0000
,
1000
0010
1000
0000
,
0001
1000
0100
0010
,
0001
1000
2000
3001
,
0010
0000
0100
0000
,
0001
0000
1000
0000
,
1001
0000
0110
0000
,
0011
0000
1100
0000
,
0220
0000
0000
0000
,
0000
0000
0000
0000
,
0000
0000
0000
0000
0330
0000
0000
1001
,
0000
0000
1011
0000
,
0000
0001
0000
1000
,
0010
1000
0100
1000
,
0010
0100
0001
1000
,
0010
0100
1001
0000
,
0010
1000
0100
0010
,
0001
1000
0010
1000
,
0010
0100
0001
1000
,
0010
0100
1001
0000
,
0001
1000
0010
1000
,
0100
0010
0001
1000
,
0001
1000
0010
0100
,
0001
1000
1001
0000
,
0001
1000
0100
1000
,
0001
0100
0010
1000
,
0001
0100
0020
0000
,
0100
0130
1000
0000
,
0001
0000
0100
0000
,
0010
0100
0010
0010
,
0100
0100
0001
0001
,
1000
1000
0001
0000
,
1000
0000
0001
0000
,
1000
0000
0100
0100
,
0010
0010
1000
0001
,
0100
0001
0002
0000
,
2003
0000
3020
0000
,
0230
0000
0301
0001
,
1000
1000
0001
1000
,
0001
1000
0002
0000
,
0203
0000
0320
0000
,
2030
0000
3010
0010
,
0100
0100
0010
0100
,
0010
0001
0000
0001
,
0001
1001
0000
0000
;
