#TITLE:EVERY HEART WANNA FLY;
#SUBTITLE:;
#ARTIST:IRENE;
#TITLETRANSLIT:;
#SUBTITLETRANSLIT:;
#ARTISTTRANSLIT:;
#CREDIT:;
#BANNER:EVERY HEART WANNA FLY.png;
#BACKGROUND:EVERY HEART WANNA FLY-BG.png;
#LYRICSPATH:;
#CDTITLE:;
#MUSIC:EVERY HEART WANNA FLY.ogg;
#OFFSET:-0.200;
#SAMPLESTART:38.400;
#SAMPLELENGTH:20.000;
#SELECTABLE:YES;
#DISPLAYBPM:157.000;
#BPMS:0.000=157.010;
#STOPS:;
#BGCHANGES:;

//---------------dance-single - Mc_Joe----------------
#NOTES:
     dance-single:
     Mc_Joe:
     Hard:
     7:
     0.560,0.545,0.221,0.299,0.000:
0000
0000
0000
0000
,
2000
0000
0100
3001
,
0201
0000
1000
0301
,
0011
0100
1000
0010
,
0110
0001
0100
1000
,
0200
0000
0000
0300
0010
0000
0010
0000
,
1010
0001
0100
0010
,
0200
0000
0000
0000
0000
0300
0000
0000
0010
0000
0000
0000
0100
0000
0001
0000
,
0200
0000
1000
0301
,
1001
0000
2000
0000
0000
3200
0000
0000
,
0320
0000
0000
0032
0000
0003
0002
0000
,
0000
0003
0200
0000
0000
0320
0000
0000
,
2030
0000
3000
2020
0000
3030
0020
0000
,
0000
0030
0200
0000
0000
0302
0000
0003
,
0202
0000
0303
0002
0000
0000
0023
0000
,
0000
0030
0200
0000
0000
0310
0000
0000
,
0220
0000
0000
0330
,
1000
1100
0001
0101
,
1000
0100
1000
0000
0001
0100
0001
0000
,
1000
1010
0001
0101
,
0100
0010
0100
0000
0001
0100
0001
1000
,
1000
0000
0100
0000
0010
0100
1000
0000
,
0010
0100
0001
0010
0100
1000
0010
0100
,
0001
0000
0010
0001
0100
0010
0010
1000
,
0100
0000
1000
0000
0010
0100
0001
0010
,
0100
0000
1100
0000
1000
0100
1000
0000
,
0010
0100
0001
0010
0001
0100
0010
1000
,
0010
0000
1010
0000
0001
0100
0001
0000
,
0100
0010
0100
0001
0001
0010
0100
0010
,
0001
0000
1000
0000
0010
0100
0010
0000
,
1000
0100
1000
0010
0100
0001
0010
0001
,
0100
0000
0010
0000
1000
0010
1000
0000
,
0001
0010
0100
0100
1000
0001
1000
1000
,
0001
0000
1001
0000
0100
0010
0100
0000
,
0001
0100
0001
1000
0010
1000
0100
0100
,
1000
0000
0010
0000
0100
0001
0010
0000
,
0100
1000
0010
0100
0001
0010
0100
1000
,
0010
0000
0110
0000
1000
0001
1000
0000
,
0010
1000
0100
0100
1000
0010
0100
0001
,
0010
0001
0100
0010
1000
0100
0010
0001
,
0010
0100
0010
0001
0100
0100
0010
1000
,
0010
1010
0000
0010
0100
0010
0000
0100
,
0001
0010
0000
0010
0100
1000
0010
0100
,
0001
0010
0000
0100
0010
0001
0000
0100
,
0010
1000
0000
1000
0010
0100
0001
0010
,
0100
1000
0000
1000
0010
0001
0000
0010
,
0100
0010
1000
0100
0001
0001
0100
1000
,
0100
0010
0000
0001
0010
0100
0010
0001
,
0201
0010
0010
0310
,
2020
0000
0000
3030
0010
0000
0100
0000
,
0202
0000
0000
0303
0010
0000
0100
0000
,
2200
3300
0100
0000
0010
0000
0100
0000
,
0220
0330
0100
0000
1000
0000
0001
0000
,
2002
0000
0000
3003
1000
0000
1001
0000
,
0010
0000
0100
0000
0010
0100
0010
0100
,
0010
0000
0001
0001
,
0202
0303
1000
0001
,
1001
0001
0000
1000
0010
0001
0000
0001
,
0010
1000
0000
0010
0100
0001
0010
0100
,
1000
1000
0000
0100
0010
0100
0000
1000
,
0010
0100
0001
0010
0100
1000
0010
0100
,
0220
0330
0001
0001
,
0101
0000
1000
0000
0010
1000
0100
0000
,
1000
0100
1000
0000
0100
1000
0010
0000
,
0100
0001
0010
0100
1000
0010
0100
0001
,
0010
0000
0010
0000
1000
0100
1000
0001
,
0100
0000
0100
0000
1000
0010
1000
0001
,
1000
0000
1000
0000
1000
0100
0010
0100
,
1000
0000
1000
0000
0100
0010
0001
0100
,
0001
0000
0001
0000
0100
0010
1000
0001
,
0100
0010
1000
0001
1000
0001
1000
0010
,
0010
1000
0100
1000
0010
0100
0010
0100
,
0020
0000
0000
0030
,
0101
0010
0100
1000
,
0010
0100
0001
0000
0010
0100
1000
0000
,
0001
1001
0100
0010
,
1000
0010
0100
0000
0001
0010
0100
1000
,
0010
0000
0100
0000
0010
0100
0010
0000
,
1000
0100
1000
0001
0100
0001
1000
0010
,
1000
0000
1000
0010
0100
0000
0100
0001
,
0010
0000
0100
1000
0010
0100
0001
0010
,
0100
0000
0110
0000
1000
0100
0001
0000
,
0001
0100
1000
0100
0010
0100
1000
0010
,
0100
0000
0001
0000
0010
0001
0100
0000
,
0010
1000
0100
0100
1000
0010
0100
0010
,
0100
0000
0001
0000
0010
0100
0010
0000
,
1000
0100
0010
0100
1000
0010
0100
0001
,
1000
0001
1000
0001
0100
0010
0010
0100
,
0001
0000
0010
0000
0100
0010
0100
0010
,
2000
0000
0000
0000
,
3000
0000
0000
0000
;

//---------------dance-single - ----------------
#NOTES:
     dance-single:
     :
     Medium:
     5:
     0.325,0.417,0.256,0.128,0.000: // measure 1
0000
0000
0000
0000
,  // measure 2
0000
0000
0000
0000
,  // measure 3
0000
0000
0000
0000
,  // measure 4
0000
0000
0000
0000
,  // measure 5
0000
0000
0000
0000
,  // measure 6
2000
0000
0000
3000
,  // measure 7
0002
0000
0000
0003
,  // measure 8
0200
0000
0000
0300
,  // measure 9
0020
0000
0000
0030
,  // measure 10
0100
0000
0010
0000
,  // measure 11
0100
0000
0010
0000
,  // measure 12
1000
0000
0001
0000
,  // measure 13
1000
0000
0001
0000
,  // measure 14
1000
0001
1000
0000
,  // measure 15
0010
0100
0010
0000
,  // measure 16
1000
0001
1000
0000
,  // measure 17
2002
0000
3003
0000
,  // measure 18
1000
0000
0010
0000
0000
0100
0000
0000
,  // measure 19
0101
0000
0000
1010
0000
0000
0110
0000
,  // measure 20
0010
0000
0100
0000
0000
0101
0000
0000
,  // measure 21
1001
0000
0000
1010
0000
0000
1000
0000
,  // measure 22
0001
1000
0010
1000
,  // measure 23
0010
0000
0100
0001
0000
1000
0000
0001
,  // measure 24
0000
0000
0000
0100
0000
0000
0010
0100
,  // measure 25
0000
0010
0010
0010
,  // measure 26
0100
0000
0001
0000
1000
0000
0001
1000
,  // measure 27
0000
0010
0000
0010
0000
0100
0000
0001
,  // measure 28
0000
1000
0001
0010
,  // measure 29
0100
0000
1000
0001
0000
0001
0000
2000
,  // measure 30
0000
0010
3010
0010
,  // measure 31
0100
0000
0001
0100
0000
0001
0000
0200
,  // measure 32
0000
0000
0010
0000
0310
0000
0010
0100
,  // measure 33
0000
0001
1000
0001
,  // measure 34
1001
0000
0001
0000
0010
0000
0100
0010
,  // measure 35
0000
0001
0000
2000
0000
0010
0000
3010
,  // measure 36
0000
0100
0001
1000
,  // measure 37
0001
0000
1000
0002
0000
1000
0000
1003
,  // measure 38
0000
0100
0100
0001
,  // measure 39
1000
0000
0001
1000
0000
0010
0000
2000
,  // measure 40
0000
0000
0000
0010
,  // measure 41
3010
0100
0001
1000
,  // measure 42
0010
1000
0001
0000
,  // measure 43
1000
0000
0000
0001
0000
0001
0000
1001
,  // measure 44
0000
0000
0010
0000
,  // measure 45
0100
0000
0000
0010
0000
0010
0000
0110
,  // measure 46
0000
0000
0100
0010
,  // measure 47
0200
0000
0302
0000
,  // measure 48
2003
0000
0000
0000
,  // measure 49
3001
0000
0001
0001
,  // measure 50
1001
0000
0000
0000
0010
0000
0000
1000
,  // measure 51
0000
0000
0000
0000
0001
0000
0000
0100
,  // measure 52
0000
0000
0000
0000
0010
0000
0000
0100
,  // measure 53
0000
0000
0000
0000
0010
0000
0000
1000
,  // measure 54
0000
0000
0000
0000
0001
0000
0000
0100
,  // measure 55
0000
0000
0000
0000
0010
0000
0000
0100
,  // measure 56
0000
0000
0000
0000
,  // measure 57
1001
0000
0000
0001
,  // measure 58
1000
1000
0001
0001
,  // measure 59
1000
0001
1000
0000
0010
0100
0010
0000
,  // measure 60
0100
0000
0001
0000
1000
0010
1000
0000
,  // measure 61
0001
0100
0001
0000
0100
0000
0010
0000
,  // measure 62
2000
0000
3001
0000
0001
0000
1000
0010
,  // measure 63
0000
0000
1000
0000
0001
0000
0100
0010
,  // measure 64
0000
1000
0000
0000
1000
0000
0001
0000
,  // measure 65
1000
0010
0100
0001
,  // measure 66
1000
1001
0001
1001
,  // measure 67
0010
1010
0010
0110
,  // measure 68
0001
0101
0010
0110
,  // measure 69
0001
1001
1000
1001
,  // measure 70
0010
1000
0001
0100
,  // measure 71
1001
0110
1001
0010
,  // measure 72
0100
0010
0010
0010
,  // measure 73
0220
0000
0330
0000
,  // measure 74
0001
0000
0100
0000
0000
0010
0000
0000
,  // measure 75
1010
0000
0000
0101
0000
0000
0110
0000
,  // measure 76
0100
0000
0010
0000
0000
1010
0000
0000
,  // measure 77
1001
0000
0000
0101
0000
0000
0001
0000
,  // measure 78
1000
0001
0100
0001
,  // measure 79
0100
0000
0010
1000
0000
0001
0000
1000
,  // measure 80
0000
0000
0000
0010
0000
0000
0100
0010
,  // measure 81
0000
0100
0100
0100
,  // measure 82
0100
0000
0001
0000
0000
1000
0000
0000
,  // measure 83
1100
0000
0000
0011
0000
0000
1001
0000
,  // measure 84
0001
0000
1000
0000
0000
1100
0000
0000
,  // measure 85
0110
0000
0000
0011
0000
0000
0010
0000
,  // measure 86
0100
1000
0001
0010
,  // measure 87
0001
0000
1000
0100
0000
0010
0000
0100
,  // measure 88
0000
0000
0000
1000
0000
0000
0001
1000
,  // measure 89
0000
0001
0001
0001
,  // measure 90
2000
0000
0000
0000
,  // measure 91
3000
0000
0000
0000
;

//---------------dance-single - ----------------
#NOTES:
     dance-single:
     :
     Easy:
     3:
     0.194,0.320,0.064,0.128,0.000: // measure 1
0000
0000
0000
0000
,  // measure 2
0000
0000
0000
0000
,  // measure 3
0000
0000
0000
0000
,  // measure 4
0000
0000
0000
0000
,  // measure 5
0000
0000
0000
0000
,  // measure 6
0020
0000
0030
0000
,  // measure 7
0200
0000
0300
0000
,  // measure 8
0002
0000
0003
0000
,  // measure 9
2000
0000
3000
0000
,  // measure 10
0020
0000
0000
0000
,  // measure 11
0000
0000
0000
0030
,  // measure 12
0200
0000
0000
0000
,  // measure 13
0000
0000
0000
0300
,  // measure 14
0002
0000
0000
0000
,  // measure 15
0000
0000
0000
0003
,  // measure 16
2000
0000
3000
0000
,  // measure 17
1001
0000
0000
0000
,  // measure 18
1000
0000
0001
0000
,  // measure 19
1000
0001
0100
0000
,  // measure 20
0010
0000
0100
0000
,  // measure 21
0001
0010
0100
0000
,  // measure 22
1000
0000
0001
0000
,  // measure 23
1000
0010
0100
0000
,  // measure 24
0001
0000
1001
0000
,  // measure 25
0010
0100
0001
0000
,  // measure 26
1000
0000
0001
0000
,  // measure 27
0100
0100
0010
0100
,  // measure 28
0010
0000
0100
0000
,  // measure 29
0001
0001
1000
0001
,  // measure 30
1000
0000
0010
0000
,  // measure 31
1000
1000
0001
0100
,  // measure 32
0020
0000
0000
0000
,  // measure 33
0130
0000
0100
0100
,  // measure 34
0010
0000
1000
0001
,  // measure 35
1000
0000
0010
0100
,  // measure 36
0001
0000
1000
0010
,  // measure 37
1000
0000
0001
0010
,  // measure 38
0100
0000
1000
0001
,  // measure 39
1000
0000
0010
0100
,  // measure 40
0002
0000
0000
0000
,  // measure 41
1003
0000
1000
1000
,  // measure 42
0020
0000
0000
0000
,  // measure 43
0000
0000
0030
0000
,  // measure 44
0200
0000
0000
0000
,  // measure 45
0000
0000
0300
0000
,  // measure 46
0002
0000
0000
0000
,  // measure 47
0000
0000
0003
0000
,  // measure 48
2000
0000
3000
0000
,  // measure 49
1001
0000
0000
0000
,  // measure 50
0001
0000
0000
0000
,  // measure 51
0100
0000
0000
0000
,  // measure 52
0010
0000
0000
0000
,  // measure 53
0100
0000
0000
0000
,  // measure 54
0001
0000
0000
1000
,  // measure 55
1000
0000
0000
0000
,  // measure 56
0002
0000
0000
0000
,  // measure 57
1003
0000
0000
0000
,  // measure 58
0001
0000
1000
0000
,  // measure 59
0001
0000
1001
0000
,  // measure 60
1000
0000
0010
0000
,  // measure 61
0100
0000
0010
0010
,  // measure 62
0110
0000
0000
0000
,  // measure 63
1001
0001
1000
0001
,  // measure 64
0100
0010
0100
0010
,  // measure 65
1000
0001
0100
0010
,  // measure 66
2000
0000
0000
0001
,  // measure 67
3001
0000
0100
0100
,  // measure 68
0000
0000
0010
0010
,  // measure 69
0000
0000
0100
0200
,  // measure 70
0000
0000
0000
0000
,  // measure 71
0010
0000
0010
0000
,  // measure 72
0001
0000
0310
0000
,  // measure 73
1001
0000
0000
0000
,  // measure 74
0100
0000
0010
0000
,  // measure 75
0100
0010
1000
0000
,  // measure 76
0001
0000
1000
0000
,  // measure 77
0010
1000
0001
0000
,  // measure 78
0100
0000
0010
0000
,  // measure 79
0100
0010
1000
0000
,  // measure 80
0001
0000
0110
0000
,  // measure 81
1000
0001
0010
0000
,  // measure 82
1000
0000
0001
0000
,  // measure 83
1000
0001
0100
0000
,  // measure 84
0010
0000
0100
0000
,  // measure 85
0001
0010
0100
0000
,  // measure 86
1000
0000
0001
0000
,  // measure 87
1000
0010
0100
0000
,  // measure 88
0001
0000
1001
0000
,  // measure 89
0010
0100
0001
0000
,  // measure 90
0200
0000
0000
0000
,  // measure 91
0300
0000
0000
0000
;
